Эврика 7: Псалмы Планет / Eureka Seven Psalms of Planets (Cезон 1 , Серия 1-50 из 50) [2005, Меха, BDRip [HWP]] - Скачать торрент бесплатно

Аниме Сериалы и все что с ним связано, вы можете скачать торрент -файлом в этом разделе.

Модераторы: Модераторы Сериалы, мультсериалы, Союз Риперов

Поделиться ВКонтакте Поделиться Facebook Поделиться Twitter Поделиться Mail.RU
АвторСообщение
Djanik

Пользователь
Пользователь
 
Раздал: 1.71 ТБ
Скачал: 312.61 ГБ
Ратио: 9.955
Сообщения: 89
Стаж: 11 лет 2 месяца 8 дней

Сообщение Djanik » 28 апр 2012, 22:25

Эврика 7: Псалмы Планет / Eureka Seven Psalms of Planets (Cезон 1 , Серия 1-50 из 50) [2005, Меха, BDRip [HWP]] - Скачать торрент

Название: Эврика 7: Псалмы Планет
Оригинальное название: Eureka Seven Psalms of Planets

Дата выхода: 2005
Страна: Япония
Студия:
Жанр: Меха
Тип аниме: TV BDRip
Сезон: 1
Серии: 1-50 из 50
Продолжительность: 24:00
Перевод: Любительский (двухголосый)
Роли озвучивали: MifSnaiper & Mirra
Субтитры: (1-26) Asgar & sagitarius & zafhos, (27) Kilar [Antravoco], (28-50) Andrew, D.Capone, fedor [Aragami Fansubs], Kaito [AniMa]
Тип релиза: Без Хардсаба
Режиссёр: Кёда Томоки
Описание: Рентон Тёрстон мечтает вырваться из родного городка и стать пилотом меха. Однажды рядом с мастерской деда Рентона опускается легендарный Нирваш Тип-Зеро, прототип всех меха. Управляет им загадочная девушка по имени Эврика, которая вместе с повстанцами из Штата Гекко противостоит властям Федерации. Вскоре мечты Рентона сбываются: он попадает на борт знаменитого «Гекко-Го» и становится частью команды. Впереди – приключения и открытия, новые встречи и непростой путь взросления в мире сто двадцать первого века, на планете, которую человечество делит с таинственными кораллианами.

Фантастический сериал «Эврика 7» стал событием сезона и в 2006 году был назван «Лучшим ТВ-сериалом». Качественная анимация, уникальный саундрек, великолепный ансамбль сэйю, отличная проработка персонажей – он заметно выделяется на фоне других произведений жанра меха-сёнэн. Но главное его достоинство – это захватывающий сюжет, который динамично развивается на протяжении всех 50 серий, а также удивительный мир будущего, придуманный «Лучшим Сценаристом 2006 года» Даем Сато.
© Расселл Д. Джонс, World Art
Дополнительно: Источник:
Качество: BDRip [HWP]
Формат файла: AVI
Видео кодек: XviD
Аудио кодек: AC3
Видео: Xvid 720x540 23.98fps 1604kbps
Аудио: Rus Dolby AC3 48000Hz stereo 256kbps
Аудио #2: Jap: Dolby AC3 48000Hz stereo 256kbps
MediaInfo:
General
Complete name: Eureka Seven Psalms of Planets (TV-1)[1-50 of 50][BD-Rip][HWP][AnimeReactor.ru]\Eureka

Seven Psalms of Planets [01 of 50][BDRip][720 x 540 XviD AC3][Sem&K & Animereactor.ru].avi
Format : AVI
Format/Info : Audio Video Interleave
File size : 367 MiB
Duration : 24mn 3s
Overall bit rate : 2 131 Kbps
Writing application : VirtualDubModRus 1.5.10.2 (build 2542/release)
Writing library : VirtualDubMod build 2542/release

Video
ID : 0
Format : MPEG-4 Visual
Format profile : Advanced Simple@L5
Format settings, BVOP : Yes
Format settings, QPel : No
Format settings, GMC : No warppoints
Format settings, Matrix : Default (H.263)
Codec ID : XVID
Codec ID/Hint : XviD
Duration : 24mn 3s
Bit rate : 1 605 Kbps
Width : 720 pixels
Height : 540 pixels
Display aspect ratio : 4:3
Frame rate : 23.976 fps
Resolution : 8 bits
Colorimetry : 4:2:0
Scan type : Progressive
Bits/(Pixel*Frame) : 0.172
Stream size : 276 MiB (75%)
Writing library : XviD 64

Audio #1
ID : 1
Format : AC-3
Format/Info : Audio Coding 3
Codec ID : 2000
Duration : 24mn 3s
Bit rate mode : Constant
Bit rate : 256 Kbps
Channel(s) : 2 channels
Channel positions : L R
Sampling rate : 48.0 KHz
Stream size : 44.0 MiB (12%)
Alignment : Split accross interleaves
Interleave, duration : 42 ms (1.00 video frame)
Interleave, preload duration : 500 ms
Title : Russian [MifSnaiper & Mirra]

Audio #2
ID : 2
Format : AC-3
Format/Info : Audio Coding 3
Codec ID : 2000
Duration : 24mn 3s
Bit rate mode : Constant
Bit rate : 256 Kbps
Channel(s) : 2 channels
Channel positions : L R
Sampling rate : 48.0 KHz
Stream size : 44.0 MiB (12%)
Alignment : Split accross interleaves
Interleave, duration : 42 ms (1.00 video frame)
Interleave, preload duration : 500 ms
Title : Japanese [Original]


Последний раз редактировалось Djanik 29 апр 2012, 00:23, всего редактировалось 1 раз.
Как качать, Как раздавать - Правила и инструкции
Торрент28 апр 2012, 22:23 [ 28 апр 2012, 22:23 ]

СКАЧАТЬ с просмотром рекламы
СтатусПроверен Гость
.torrent скачан2 раз
Размер18.96 ГБ (20 361 899 481)

Djanik


Пользователь
Пользователь
 

Сообщения: 89

Стаж: 11 лет 2 месяца 8 дней

Сообщение Djanik» 29 апр 2012, 00:24

вроде изменил :-[

Cepera446


 
Стаж: 53 года 1 месяц 5 дней

Сообщение Cepera446» 29 апр 2012, 20:10

Это прикол какой то новый, выкладываешь и не раздаёшь ???? стоит в торенте 2ч и даже 1Кб незагрузило *стена

Djanik


Пользователь
Пользователь
 

Сообщения: 89

Стаж: 11 лет 2 месяца 8 дней

Сообщение Djanik» 29 апр 2012, 22:10

KeeperRus писал(а):

ну, мне придраться не к чему. проверено.
P.s. с прибытием на рипер.ам

спасибо, но что-то тут не любят аниме видимо :D , будем продвигать в массы аниме :D

Djanik


Пользователь
Пользователь
 

Сообщения: 89

Стаж: 11 лет 2 месяца 8 дней

Сообщение Djanik» 29 апр 2012, 22:10

Cepera446 писал(а):

Это прикол какой то новый, выкладываешь и не раздаёшь ???? стоит в торенте 2ч и даже 1Кб незагрузило *стена


сорри, проблемы были с компом

Cepera446


 
Стаж: 53 года 1 месяц 5 дней

Сообщение Cepera446» 30 апр 2012, 04:32

Djanik писал(а):

Cepera446 писал(а):

Это прикол какой то новый, выкладываешь и не раздаёшь ???? стоит в торенте 2ч и даже 1Кб незагрузило *стена


сорри, проблемы были с компом


Спасибо ) Раздаётся, правда скорость маловата, а так то норм :-)

Djanik


Пользователь
Пользователь
 

Сообщения: 89

Стаж: 11 лет 2 месяца 8 дней

Сообщение Djanik» 30 апр 2012, 14:31

так в подписи специально написал скорость соединения с интернетом своё, что бы не просили больше скорости :D

Djanik


Пользователь
Пользователь
 

Сообщения: 89

Стаж: 11 лет 2 месяца 8 дней

Сообщение Djanik» 01 май 2012, 17:05

ухожу с раздачи, так как вроде сидов стало больше :D


Вернуться в Аниме Сериалы

Кто сейчас на конференции

Сейчас этот форум просматривают: нет зарегистрированных пользователей

Ресурс не предоставляет электронные версии произведений, а занимается лишь коллекционированием и каталогизацией ссылок, присылаемых и публикуемых на форуме нашими читателями. Если вы являетесь правообладателем какого-либо представленного материала и не желаете чтобы ссылка на него находилась в нашем каталоге, свяжитесь с нами и мы незамедлительно удалим её. Файлы для обмена на трекере предоставлены пользователями сайта, и администрация не несёт ответственности за их содержание. Просьба не заливать файлы, защищенные авторскими правами, а также файлы нелегального содержания!