Красавица-воин Сейлор Мун / Sailor Moon (Cезон 1-5 из 5 сезонов+спешлы , Серия все серии) [1992, Школа, DVDRip] - Скачать торрент бесплатно

Аниме Сериалы и все что с ним связано, вы можете скачать торрент -файлом в этом разделе.

Модераторы: Модераторы Сериалы, мультсериалы, Союз Риперов

Поделиться ВКонтакте Поделиться Facebook Поделиться Twitter Поделиться Mail.RU
АвторСообщение
Djanik

Пользователь
Пользователь
 
Раздал: 1.71 ТБ
Скачал: 309.47 ГБ
Ратио: 10.011
Сообщения: 89
Зарегистрирован: 28 ноя 2011, 03:10

Сообщение Djanik » 08 май 2012, 15:13

Красавица-воин Сейлор Мун / Sailor Moon (Cезон 1-5 из 5 сезонов+спешлы , Серия все серии) [1992, Школа, DVDRip] - Скачать торрент

Название: Красавица-воин Сейлор Мун
Оригинальное название: Sailor Moon

Дата выхода: 1992
Страна: Япония
Студия:
Жанр: Школа
Тип аниме: TV
Сезон: 1-5 из 5 сезонов+спешлы
Серии: все серии
Продолжительность: 00:23:14
Перевод: Профессиональный (двухгоголосый, закадровый ), в фильмах одноголосый+оригинальная японская дорожка
Роли озвучивали: телеканал ТНТ
Субтитры: присутствуют, внешние
Тип релиза: Без Хардсаба
Режиссёр: Сато Дзюнъити
Описание: Лорды Золотого Тысячелетия и их королева Берил в наше время решают воскресить свою королеву Металию. Но для этого им требуется энергия Серебряного Кристалла, разлетевшегося на множество осколков. Говорящая кошка Луна и её друг — кот Артемис, разыскивают воинов Луны и её принцессу, чтобы они сумели остановить лордов Темного Королевства.

Обычная японская школьница Цукино Усаги (Банни) - перевоплощение жившей в глубокой древности девушки-воина Сейлор Мун, защитницы Лунного королевства. Теперь, в наши дни, она и другие реинкарнации воинов Луны (Сейлор Меркурий, Сейлор Венера, Сейлор Марс и Сейлор Юпитер) снова должны сразиться со своими исконными врагами...
Дополнительно: Спустя восемнадцать лет - актрисы-сэйю, озвучивавшие главных героинь сериала, на встрече в декабре 2009 года (слева направо): Эми Синохара (Макото Кино / Сейлор Юпитер), Ая Хисакава (Ами Мидзуно / Сейлор Меркурий), Котоно Мицуиси (Усаги Цукино / Сейлормун), Митиэ Томидзава (Рэй Хино / Сейлор Марс) и Рика Фуками (Минако Айно / Сейлор Венера).



Качество: DVDRip
Формат файла: AVI
Видео кодек: MPEG4 Video (H264)
Аудио кодек: MPEG Audio Layer 3
Видео: MPEG4 Video (H264) 640x480 23.98fps 1500kbps
Аудио: MPEG Audio Layer 3 48000Hz stereo 192kbps
Аудио #2: MPEG Audio Layer 3 48000Hz stereo 192kbps
MediaInfo:
General
Complete name : SAILOR MOON\1.sezon.Sailor.Moon.1992.H264.DVDRip\Sejlor.Mun.01.serija.iz.46.avi
Format : AVI
Format/Info : Audio Video Interleave
File size : 316 MiB
Duration : 23mn 16s
Overall bit rate : 1 898 Kbps
Movie name : Sailor Moon / 1992 / DVDRip - dfuy
Director : dfuy
Encoded by : dfuy / dfuy
Subject : http://kinozal.tv/mytorrents.php?id=439381
Writing application : VirtualDubMod 1.5.10.2 (build 2540/release)
Writing library : VirtualDubMod build 2540/release

Video
ID : 0
Format : AVC
Format/Info : Advanced Video Codec
Format profile : High@L3.0
Format settings, CABAC : Yes
Format settings, ReFrames : 1 frame
Codec ID : H264
Duration : 23mn 16s
Bit rate : 1 500 Kbps
Width : 640 pixels
Height : 480 pixels
Display aspect ratio : 4:3
Frame rate : 23.976 fps
Resolution : 8 bits
Colorimetry : 4:2:0
Scan type : Progressive
Bits/(Pixel*Frame) : 0.204
Stream size : 250 MiB (79%)
Writing library : x264 core 65 r1024bm 2652abe
Encoding settings : cabac=1 / ref=1 / deblock=1:0:0 / analyse=0x3:0x13 / me=umh / subme=7 / psy_rd=0.0:0.0 / mixed_ref=0 / me_range=16 / chroma_me=1 / trellis=1 / 8x8dct=1 / cqm=0 / deadzone=21,11 / chroma_qp_offset=0 / threads=1 / thread_queue=1 / nr=0 / decimate=1 / mbaff=0 / bframes=0 / keyint=250 / keyint_min=25 / scenecut=40 / rc=2pass / bitrate=1500 / ratetol=1.0 / qcomp=0.60 / qpmin=10 / qpmax=51 / qpstep=4 / cplxblur=20.0 / qblur=0.5 / ip_ratio=1.40 / aq=1:1.00:0:10.00

Audio #1
ID : 1
Format : MPEG Audio
Format version : Version 1
Format profile : Layer 3
Format_Settings_Mode : Joint stereo
Codec ID : 55
Codec ID/Hint : MP3
Duration : 23mn 16s
Bit rate mode : Constant
Bit rate : 192 Kbps
Channel(s) : 2 channels
Sampling rate : 48.0 KHz
Stream size : 32.0 MiB (10%)
Alignment : Split accross interleaves
Interleave, duration : 42 ms (1.00 video frame)
Interleave, preload duration : 500 ms

Audio #2
ID : 2
Format : MPEG Audio
Format version : Version 1
Format profile : Layer 3
Format_Settings_Mode : Joint stereo
Codec ID : 55
Codec ID/Hint : MP3
Duration : 23mn 16s
Bit rate mode : Constant
Bit rate : 192 Kbps
Channel(s) : 2 channels
Sampling rate : 48.0 KHz
Stream size : 32.0 MiB (10%)
Alignment : Split accross interleaves
Interleave, duration : 42 ms (1.00 video frame)
Interleave, preload duration : 500 ms

Как качать, Как раздавать - Правила и инструкции
Торрент08 май 2012, 15:08 [ 08 май 2012, 15:08 ]

СКАЧАТЬ с просмотром рекламы
СтатусПроверен Гость
.torrent скачан11 раз
Размер68.59 ГБ (73 652 973 218)

Djanik


Пользователь
Пользователь
 

Сообщения: 89

Зарегистрирован: 28 ноя 2011, 03:10


Сообщение Djanik» 08 май 2012, 15:59

раздача на полной скорости начнётся сегодня после 21-00 по москве :-[

naifrit


Новичок
Новичок
 

Сообщения: 3

Зарегистрирован: 20 апр 2010, 11:51


Сообщение naifrit» 09 май 2012, 05:56

Дайте скорости, совсем не качает

Djanik


Пользователь
Пользователь
 

Сообщения: 89

Зарегистрирован: 28 ноя 2011, 03:10


Сообщение Djanik» 26 май 2012, 15:37

naifrit писал(а):

Дайте скорости, совсем не качает


возвращаюсь на раздачу :-[

paukkom


Новичок
Новичок
 

Сообщения: 3

Зарегистрирован: 25 сен 2012, 16:30


Сообщение paukkom» 15 окт 2012, 18:34

Круть ето надо скачать!!!! *круто


Вернуться в Аниме Сериалы

Кто сейчас на конференции

Сейчас этот форум просматривают: нет зарегистрированных пользователей

Ресурс не предоставляет электронные версии произведений, а занимается лишь коллекционированием и каталогизацией ссылок, присылаемых и публикуемых на форуме нашими читателями. Если вы являетесь правообладателем какого-либо представленного материала и не желаете чтобы ссылка на него находилась в нашем каталоге, свяжитесь с нами и мы незамедлительно удалим её. Файлы для обмена на трекере предоставлены пользователями сайта, и администрация не несёт ответственности за их содержание. Просьба не заливать файлы, защищенные авторскими правами, а также файлы нелегального содержания!