Крутой учитель Онидзука / Great Teacher Onizuka (Cезон 1 , Серия 43 из 43) [1999, Комедия, DVDRip] - Скачать торрент бесплатно

Аниме Сериалы и все что с ним связано, вы можете скачать торрент -файлом в этом разделе.

Модераторы: Модераторы Сериалы, мультсериалы, Союз Риперов

Поделиться ВКонтакте Поделиться Facebook Поделиться Twitter Поделиться Mail.RU
АвторСообщение
Djanik

Пользователь
Пользователь
 
Раздал: 1.71 ТБ
Скачал: 312.61 ГБ
Ратио: 9.955
Сообщения: 89
Стаж: 11 лет 2 месяца 8 дней

Сообщение Djanik » 05 май 2012, 15:07

Крутой учитель Онидзука / Great Teacher Onizuka (Cезон 1 , Серия 43 из 43) [1999, Комедия, DVDRip] - Скачать торрент

Название: Крутой учитель Онидзука
Оригинальное название: Great Teacher Onizuka

Дата выхода: 1999
Страна: Япония
Студия:
Жанр: Комедия
Тип аниме: TV
Сезон: 1
Серии: 43 из 43
Продолжительность: первая серия 00:48:25, остальные по 00:24:00
Перевод: Профессиональный (двухгоголосый, закадровый)
Роли озвучивали: 2х2
Тип релиза: Без Хардсаба
Режиссёр: Абэ Нориюки
Описание: Онидзука Эйкити («22 года, холост», - как он сам любит представляться) - настоящий ужас на двух колесах, член нагоняющей ужас на горожан банды мотоциклистов, решает переквалифицироваться в… школьного учителя. Ведь в любом учебном заведении полным-полно аппетитных старшеклассниц в коротеньких юбочках! Но чем глубже примеривший необычную роль хулиган окунается в перипетии общего образования, тем сильнее он пытается переиначить место работы на свой манер - одерживая одну за другой победы над царящими в школе косностью, лицемерием, показухой и безразличием.
Качество: DVDRip
Формат файла: MP4
Видео кодек: MPEG4 Video (H264)
Аудио кодек: AAC
Видео: MPEG4 Video (H264) 640x480 238.56fps
Аудио: AAC 44100Hz stereo
MediaInfo:
General
Complete name : Крутой учитель Онидзука\Крутой Учитель Онидзука - 24 Серия (2x2).mp4
Format : MPEG-4
Format profile : Base Media
Codec ID : isom
File size : 127 MiB
Duration : 23mn 59s
Overall bit rate : 742 Kbps
Writing application : Lavf52.40.0

Video
ID : 1
Format : AVC
Format/Info : Advanced Video Codec
Format profile : High@L3.0
Format settings, CABAC : Yes
Format settings, ReFrames : 3 frames
Codec ID : avc1
Codec ID/Info : Advanced Video Coding
Duration : 23mn 59s
Bit rate mode : Variable
Bit rate : 609 Kbps
Nominal bit rate : 600 Kbps
Width : 640 pixels
Height : 480 pixels
Display aspect ratio : 4:3
Frame rate mode : Variable
Frame rate : 25.000 fps
Minimum frame rate : 12.500 fps
Maximum frame rate : 25.000 fps
Resolution : 8 bits
Colorimetry : 4:2:0
Scan type : Progressive
Bits/(Pixel*Frame) : 0.079
Stream size : 104 MiB (82%)
Writing library : x264 core 79
Encoding settings : cabac=1 / ref=3 / deblock=1:0:0 / analyse=0x3:0x113 / me=hex / subme=7 / psy=1 / psy_rd=1.0:0.0 / mixed_ref=1 / me_range=16 / chroma_me=1 / trellis=1 / 8x8dct=1 / cqm=0 / deadzone=21,11 / chroma_qp_offset=-2 / threads=24 / nr=0 / decimate=1 / mbaff=0 / constrained_intra=0 / bframes=3 / b_pyramid=0 / b_adapt=1 / b_bias=0 / direct=1 / wpredb=32 / wpredp=2 / keyint=250 / keyint_min=25 / scenecut=40 / rc_lookahead=40 / rc=abr / mbtree=1 / bitrate=600 / ratetol=6.7 / qcomp=0.60 / qpmin=10 / qpmax=51 / qpstep=4 / ip_ratio=1.41 / aq=1:1.00

Audio
ID : 2
Format : AAC
Format/Info : Advanced Audio Codec
Format version : Version 4
Format profile : LC
Format settings, SBR : No
Codec ID : 40
Duration : 23mn 59s
Bit rate mode : Variable
Bit rate : 128 Kbps
Channel(s) : 2 channels
Channel positions : L R
Sampling rate : 44.1 KHz
Resolution : 16 bits
Stream size : 22.0 MiB (17%)

Как качать, Как раздавать - Правила и инструкции
Торрент05 май 2012, 15:05 [ 05 май 2012, 15:05 ]

СКАЧАТЬ с просмотром рекламы
Статус-
.torrent скачан4 раз
Размер5.41 ГБ (5 803 631 530)

Djanik


Пользователь
Пользователь
 

Сообщения: 89

Стаж: 11 лет 2 месяца 8 дней

Сообщение Djanik» 05 май 2012, 15:38

:'( да где бы её найти ещё, вот что нащёл-выложил

13napas


Новичок
Новичок
 

Сообщения: 3

Стаж: 11 лет 2 месяца 26 дней

Сообщение 13napas» 05 май 2012, 16:31

А что его искать то?) вон на рутрекере лежит ;-)

Djanik


Пользователь
Пользователь
 

Сообщения: 89

Стаж: 11 лет 2 месяца 8 дней

Сообщение Djanik» 05 май 2012, 21:18

13napas писал(а):

А что его искать то?) вон на рутрекере лежит ;-)


а там озвучка от 2х2 ??


Вернуться в Аниме Сериалы

Кто сейчас на конференции

Сейчас этот форум просматривают: нет зарегистрированных пользователей

Ресурс не предоставляет электронные версии произведений, а занимается лишь коллекционированием и каталогизацией ссылок, присылаемых и публикуемых на форуме нашими читателями. Если вы являетесь правообладателем какого-либо представленного материала и не желаете чтобы ссылка на него находилась в нашем каталоге, свяжитесь с нами и мы незамедлительно удалим её. Файлы для обмена на трекере предоставлены пользователями сайта, и администрация не несёт ответственности за их содержание. Просьба не заливать файлы, защищенные авторскими правами, а также файлы нелегального содержания!