Покемон: Современное поколение / Pocket Monsters: Advanced Generation (Cезон 2 , Серия 192 из 192) [2006, Комедия, DVDRip] - Скачать торрент бесплатно

Аниме Сериалы и все что с ним связано, вы можете скачать торрент -файлом в этом разделе.

Модераторы: Модераторы Сериалы, мультсериалы, Союз Риперов

Поделиться ВКонтакте Поделиться Facebook Поделиться Twitter Поделиться Mail.RU
АвторСообщение
Djanik

Пользователь
Пользователь
 
Раздал: 1.71 ТБ
Скачал: 312.61 ГБ
Ратио: 9.955
Сообщения: 89
Стаж: 11 лет 2 месяца 8 дней

Сообщение Djanik » 18 май 2012, 15:19

Покемон: Современное поколение / Pocket Monsters: Advanced Generation (Cезон 2 , Серия 192 из 192) [2006, Комедия, DVDRip] - Скачать торрент

Название: Покемон: Современное поколение
Оригинальное название: Pocket Monsters: Advanced Generation

Дата выхода: 2006
Страна: Япония
Студия:
Жанр: Комедия
Тип аниме: TV
Сезон: 2
Серии: 192 из 192
Продолжительность: 00:23:14
Перевод: Любительский (одноголосый)
Тип релиза: Без Хардсаба
Режиссёр: Юяма Кунихико
Описание: Pokemon AG достойное продолжение Pokemon'а. Он весьма сильно похож на первый сериал. По сути все что изменилось, это то, что Касуми ушла, а вместо нее появились два новых героя. Десятилетняя девочка Харука, и ее младший брат Масато. Плюс к тому именно в AG были представлены Pokemon Contest, появившиеся в RS покеиграх, на которых и основан этот сериал. Так что теперь в сериале рассказывается не только о том, как Сатоси ходит и завоевывает новые значки, но и о том, как идущая с нам Харука участвует в соревнованиях, и завоевывает ленточки Pokemon Contest'ов. В 9 сезоне, друзья вернулись назад в Канто (место действия первого сезона Покемона) и Сатоси принял участия в Battle Frontier. Сам по себе BF основан на своем прототипе из игры Pokemon Emerald. Где он находится на отдельном острове. И представляет из себя 7 домов, в каждом из которых идут битвы покемонов по особым правилам. В сериале же все правила отбросили, а сами места для сражений разместили не на острове, а раскиданными по всему Канто.
Дополнительно: 1 сезон этого аниме: anime-serial/pokemon-pokemon-indigo-league-cezon-1-seriya-1-82-iz-276-t46244.html
Качество: DVDRip
Формат файла: AVI
Видео кодек: DivX 5
Аудио кодек: MPEG Audio Layer 3
Видео: DivX 5 640x480 23.98fps 797kbps
Аудио: MPEG Audio Layer 3 48000Hz stereo 128kbps [Rus]
Аудио #2: MPEG Audio Layer 3 48000Hz stereo 128kbps [Eng]
MediaInfo:
General
Complete name : Pokemon Advance (2 сезон)\Pokemon.280.avi
Format : AVI
Format/Info : Audio Video Interleave
File size : 164 MiB
Duration : 21mn 26s
Overall bit rate : 1 067 Kbps
Writing application : VirtualDubModRus 1.5.10.2 (build 2540/release)
Writing library : VirtualDubMod build 2540/release

Video
ID : 0
Format : MPEG-4 Visual
Format settings, BVOP : Yes
Format settings, QPel : No
Format settings, GMC : No warppoints
Format settings, Matrix : Default (H.263)
Codec ID : DX50
Codec ID/Hint : DivX 5
Duration : 21mn 26s
Bit rate : 797 Kbps
Width : 640 pixels
Height : 480 pixels
Display aspect ratio : 4:3
Frame rate : 23.976 fps
Resolution : 8 bits
Scan type : Progressive
Bits/(Pixel*Frame) : 0.108
Stream size : 122 MiB (75%)
Writing library : DivX 1338m

Audio #1
ID : 1
Format : MPEG Audio
Format version : Version 1
Format profile : Layer 3
Codec ID : 55
Codec ID/Hint : MP3
Duration : 21mn 26s
Bit rate mode : Constant
Bit rate : 128 Kbps
Channel(s) : 2 channels
Sampling rate : 48.0 KHz
Stream size : 19.6 MiB (12%)
Alignment : Aligned on interleaves
Interleave, duration : 42 ms (1.00 video frame)
Interleave, preload duration : 504 ms

Audio #2
ID : 2
Format : MPEG Audio
Format version : Version 1
Format profile : Layer 3
Codec ID : 55
Codec ID/Hint : MP3
Duration : 21mn 26s
Bit rate mode : Constant
Bit rate : 128 Kbps
Channel(s) : 2 channels
Sampling rate : 48.0 KHz
Stream size : 19.6 MiB (12%)
Alignment : Aligned on interleaves
Interleave, duration : 42 ms (1.00 video frame)
Interleave, preload duration : 504 ms

Последний раз редактировалось Djanik 18 май 2012, 15:25, всего редактировалось 5 раз(а).
Как качать, Как раздавать - Правила и инструкции
Торрент18 май 2012, 15:18 [ 18 май 2012, 15:18 ]

СКАЧАТЬ с просмотром рекламы
СтатусПроверен Гость
.torrent скачан10 раз
Размер29.26 ГБ (31 415 429 949)

Djanik


Пользователь
Пользователь
 

Сообщения: 89

Стаж: 11 лет 2 месяца 8 дней

Сообщение Djanik» 18 май 2012, 15:20

нормальная раздача начнётся примерно в 21-00 по москве

п.с. 3 сезон на подходе :D

TEVEZ


 
Стаж: 53 года 1 месяц 5 дней

Сообщение TEVEZ» 18 май 2012, 15:44

можешь написать какой это сезон. 11?

sailgar


Новичок
Новичок
 

Сообщения: 2

Стаж: 11 лет 5 месяцев 8 дней

Сообщение sailgar» 18 май 2012, 18:08

Автору респект!

а серии с озвучкой Jetix есть?

Djanik


Пользователь
Пользователь
 

Сообщения: 89

Стаж: 11 лет 2 месяца 8 дней

Сообщение Djanik» 19 май 2012, 01:13

sailgar писал(а):

Автору респект!

а серии с озвучкой Jetix есть?


есть, но очень плохого качества, в 3 сезоне Pokemon_Diamond_&_Pearl кажется озвучка от жетикс будет 0-) , ну она там многоголосая 0-)

на счёт фильмов, сорри пока времени нет перекачать в нормальном качестве :'( , как будет-выложу

HELL ANGRY


Новичок
Новичок
 

Сообщения: 2

Стаж: 11 лет 4 месяца 24 дня

Сообщение HELL ANGRY» 23 июн 2012, 19:24

А раздавать кто-нибудь будит, вторые сутки процент загрузки и скорость ноль??!!
Полторы недели качаю, скачал 29% процентов, чё за издевательство?

LeoDragnil


 
Стаж: 53 года 1 месяц 5 дней

Сообщение LeoDragnil» 22 авг 2012, 03:12

:-[ Встаньте на раздачу плиз

paukkom


Новичок
Новичок
 

Сообщения: 3

Стаж: 10 лет 4 месяца 11 дней

Сообщение paukkom» 15 окт 2012, 18:32

Спасибо!!!!!!!Пикачу вызываю тебя!!! *лол


Вернуться в Аниме Сериалы

Кто сейчас на конференции

Сейчас этот форум просматривают: нет зарегистрированных пользователей

Ресурс не предоставляет электронные версии произведений, а занимается лишь коллекционированием и каталогизацией ссылок, присылаемых и публикуемых на форуме нашими читателями. Если вы являетесь правообладателем какого-либо представленного материала и не желаете чтобы ссылка на него находилась в нашем каталоге, свяжитесь с нами и мы незамедлительно удалим её. Файлы для обмена на трекере предоставлены пользователями сайта, и администрация не несёт ответственности за их содержание. Просьба не заливать файлы, защищенные авторскими правами, а также файлы нелегального содержания!