Ван-Пис (861-929 серии) / One Piece [2018-2020, Приключения, комедия, фэнтези, сёнэн, мульт.сериал, WEBRip 1080p | StudioBand] - Скачать торрент бесплатно

Аниме Сериалы и все что с ним связано, вы можете скачать торрент -файлом в этом разделе.

Модераторы: Модераторы Сериалы, мультсериалы, Союз Риперов

Поделиться ВКонтакте Поделиться Facebook Поделиться Twitter Поделиться Mail.RU
АвторСообщение
Renesans
Аватара пользователя
Модератор Музыки
Модератор Музыки
 
Раздал: 417.88 ГБ
Скачал: 325 ГБ
Ратио: 6.854
Сообщения: 2461
Зарегистрирован: 28 май 2012, 13:53
Награды: 14
За 100 сообщений (1) За 500 сообщений (1) За 1000 сообщений (1) 250 релизов (1) 500 релизов (1) 1000 релизов (1) За новинки музыки (1) За 2000 полученных спасибо (1) За 4000 полученных спасибо (1) За 8000 полученных спасибо (1) 200 кармы (1) 500 кармы (1) 1000 кармы (1) Халява №5 (1)

Сообщение Renesans » 15 мар 2021, 02:36

Ван-Пис (861-929 серии) / One Piece [2018-2020, Приключения, комедия, фэнтези, сёнэн, мульт.сериал, WEBRip 1080p | StudioBand] - Скачать торрент

Название: Ван-Пис
Оригинальное название: One Piece
Год выпуска: 2018-2020
Жанр: Приключения, комедия, фэнтези, сёнэн, мульт.сериал
Режиссер-постановщик: Оцука Такаси

Описание: Последние слова, произнесенные Королем Пиратов перед казнью, вдохновили многих: «Мои сокровища? Коли хотите, забирайте. Ищите – я их все оставил там!». Легендарная фраза Золотого Роджера ознаменовала начало Великой Эры Пиратов – тысячи людей в погоне за своими мечтами отправились на Гранд Лайн, самое опасное место в мире, желая стать обладателями мифических сокровищ... Но с каждым годом романтиков становилось все меньше, их постепенно вытесняли прагматичные пираты-разбойники, которым награбленное добро было куда ближе, чем какие-то «никчемные мечты». Но вот, одним прекрасным днем, семнадцатилетний Монки Д. Луффи исполнил заветную мечту детства - отправился в море. Его цель - ни много, ни мало стать новым Королем Пиратов. За достаточно короткий срок юному капитану удается собрать команду, состоящую из не менее амбициозных искателей приключений. И пусть ими движут совершенно разные устремления, главное, этим ребятам важны не столько деньги и слава, сколько куда более ценное – принципы и верность друзьям. И еще – служение Мечте. Что ж, пока по Гранд Лайн плавают такие люди, Великая Эра Пиратов всегда будет с нами!



Страна: Япония
Продолжительность: ~ 00:23:55 (серия)
Перевод: Дубляж | StudioBand (Wakanim)

Формат: MKV
Кодек: MPEG-4 AVC
Качество: WEB-DLRip 1080p
Видео: 1920x1080, 4 100 Кбит/с
Звук RUS: AAC, 2 ch, 128 Кбит/с
Субтитры: Русские (вшитые, на надписи)

] ] ] ]
General
Complete name : [FT] One Piece - 862.mp4
Format : MPEG-4
Format profile : Base Media
Codec ID : isom (isom/iso2/avc1/mp41)
File size : 716 MiB
Duration : 23 min 57 s
Overall bit rate : 4 180 kb/s

Video
ID : 1
Format : AVC
Format/Info : Advanced Video Codec
Format profile : High@L4
Format settings : CABAC / 4 Ref Frames
Format settings, CABAC : Yes
Format settings, Reference : 4 frames
Codec ID : avc1
Codec ID/Info : Advanced Video Coding
Duration : 23 min 57 s
Bit rate : 4 100 kb/s
Width : 1 920 pixels
Height : 1 080 pixels
Display aspect ratio : 16:9
Frame rate mode : Variable
Frame rate : 23.976 (23976/1000) FPS
Minimum frame rate : 21.739 FPS
Maximum frame rate : 27.335 FPS
Color space : YUV
Chroma subsampling : 4:2:0
Bit depth : 8 bits
Scan type : Progressive
Bits/(Pixel*Frame) : 0.082
Stream size : 694 MiB (97%)
Writing library : x264 core 148 r2708+13 38887fd
Encoding settings : cabac=1 / ref=3 / deblock=1:0:0 / analyse=0x3:0x113 / me=hex / subme=6 / psy=1 / psy_rd=1.00:0.00 / mixed_ref=0 / me_range=16 / chroma_me=1 / trellis=1 / 8x8dct=1 / cqm=0 / deadzone=21,11 / fast_pskip=1 / chroma_qp_offset=-2 / threads=24 / lookahead_threads=4 / sliced_threads=0 / nr=0 / decimate=1 / interlaced=0 / bluray_compat=0 / constrained_intra=0 / bframes=3 / b_pyramid=2 / b_adapt=1 / b_bias=0 / direct=1 / weightb=1 / open_gop=0 / weightp=2 / keyint=50 / keyint_min=5 / scenecut=0 / intra_refresh=0 / rc_lookahead=40 / rc=abr / mbtree=1 / bitrate=4100 / ratetol=1.0 / qcomp=0.60 / qpmin=0 / qpmax=69 / qpstep=4 / vbv_maxrate=4700 / vbv_bufsize=23500 / nal_hrd=none / filler=0 / ip_ratio=1.40 / aq=1:1.00
Codec configuration box : avcC

Audio
ID : 2
Format : AAC LC
Format/Info : Advanced Audio Codec Low Complexity
Codec ID : mp4a-40-2
Duration : 23 min 57 s
Bit rate mode : Constant
Bit rate : 128 kb/s
Channel(s) : 2 channels
Channel layout : L R
Sampling rate : 48.0 kHz
Frame rate : 46.875 FPS (1024 SPF)
Compression mode : Lossy
Stream size : 21.9 MiB (3%)
Default : Yes
Alternate group : 1
Как качать, Как раздавать - Правила и инструкции
Торрент15 мар 2021, 02:36 [ 15 мар 2021, 02:36 ]

СКАЧАТЬ с просмотром рекламы
СтатусПроверен -=Robbertta=-
.torrent скачан0 раз
Размер53.54 ГБ (57 490 052 895)

Вернуться в Аниме Сериалы

Кто сейчас на конференции

Сейчас этот форум просматривают: нет зарегистрированных пользователей

Ресурс не предоставляет электронные версии произведений, а занимается лишь коллекционированием и каталогизацией ссылок, присылаемых и публикуемых на форуме нашими читателями. Если вы являетесь правообладателем какого-либо представленного материала и не желаете чтобы ссылка на него находилась в нашем каталоге, свяжитесь с нами и мы незамедлительно удалим её. Файлы для обмена на трекере предоставлены пользователями сайта, и администрация не несёт ответственности за их содержание. Просьба не заливать файлы, защищенные авторскими правами, а также файлы нелегального содержания!