Истерия / Delirium [2018, Ужасы, триллер, BDRip 720p | Лицензия] - Скачать торрент бесплатно

BD и HD Фильмы в отличном качестве. Вы можете найти в этом разделе и скачать торрент бесплатно.

Модераторы: Новинки кинематографа, Союз Риперов

BD и HD Фильмы в отличном качестве. Вы можете найти в этом разделе и скачать торрент бесплатно.
Поделиться ВКонтакте Поделиться Facebook Поделиться Twitter Поделиться Mail.RU
АвторСообщение
volsem
Аватара пользователя
Новинки кинематографа
Новинки кинематографа
 
Раздал: 2.64 ПБ
Скачал: 1.02 ПБ
Ратио: 2002.577
Сообщения: 1877
Зарегистрирован: 19 фев 2016, 20:53
Награды: 32
За 100 сообщений (1) За 500 сообщений (1) За 1000 сообщений (1) За 1500 сообщений (1) 5 Тб отданного (1) 10 Тб отданного (1) 15 Тб отданного (1) 20 Тб отданного (1) 30 Тб отданного (1) 10 Тб скаченного (1) 15 Тб скаченного (1) 20 Тб скаченного (1) 30 Тб скаченного (1) 50 Тб скаченного (1) Размер созданных раздач 3 Тб (1) Размер созданных раздач 5 Тб (1) 250 релизов (1) 500 релизов (1) 1000 релизов (1) 1500 релизов (1) За новинки фильмов (1) За новинки книг (1) 2-е место (1) За 2000 полученных спасибо (1) За 4000 полученных спасибо (1) За 8000 полученных спасибо (1) За 10000 полученных спасибо (1) За 15000 полученных спасибо (1) 200 кармы (1) 500 кармы (1) 1000 кармы (1) Халява №3 (1)
Карма: 1663
-2--2--2--2--2--2--2--2--2-

Сообщение volsem » 12 июн 2018, 22:40

Истерия / Delirium [2018, Ужасы, триллер, BDRip 720p | Лицензия] - Скачать торрент

Информация о фильме
Название: Истерия
Оригинальное название: Delirium
Год выхода: 2018
Жанр: Ужасы, триллер
Страна: США
Перевод: Дублированный | Лицензия
Продолжительность: 01:35:59
Режиссер: Дэннис Илиадис
В ролях: Дженезис Родригез, Тофер Грейс, Патриша Кларксон, Каллэн Мулвей, Робин Томас, Дэйзи МакКрэкин, Келли Барксдэйл, Браден Фицджералд, Коуди Салливан, Марти Эли Шварц и др.

О фильме: Бывший пациент клиники для душевнобольных возвращается в роскошный особняк, доставшийся ему после смерти родителей. В этом доме прошло все его детство, и с ним связано много ярких воспоминаний. Но со временем в доме начинают происходить странные и пугающие вещи. Или это все — в его голове?



Файл
Качество: BDRip 720p
Видео: MPEG-4 AVC, 1280x692, 6000 kbps, 24,000 fps
Звук#1: русский, DTS 5.1, 48 kHz, 1509 kbps | Лицензия
Звук#2: русский, AC3 5.1, 48 kHz, 640 kbps | Лицензия
Звук#3: английский, AC3 5.1, 48 kHz, 640 kbps | оригинал
Субтитры: русские

General
Уникальный идентификатор : 228129804170321752481144808537229493675 (0xABA033BD3608FE9FA4700FC857E605AB)
Полное имя : F:TorrentDelirium2018BDRip720p.mkv
Формат : Matroska
Версия формата : Version 4 / Version 2
Размер файла : 5.89 GiB
Продолжительность : 1 h 35 min
Общий поток : 8 787 kb/s
Дата кодирования : UTC 2018-07-03 10:47:25
Программа кодирования : mkvmerge v9.5.0 ('Quiet Fire') 64bit
Библиотека кодирования : libebml v1.3.4 + libmatroska v1.4.5

Video
Идентификатор : 1
Формат : AVC
Формат/Информация : Advanced Video Codec
Профиль формата : High@L4.1
Настройки формата : CABAC / 9 Ref Frames
Параметр CABAC формата : Yes
Параметр RefFrames формата : 9 frames
Идентификатор кодека : V_MPEG4/ISO/AVC
Продолжительность : 1 h 35 min
Битрейт : 6 000 kb/s
Ширина : 1 280 pixels
Высота : 692 pixels
Соотношение сторон : 1.85:1
Режим частоты кадров : Constant
Частота кадров : 24.000 FPS
Цветовое пространство : YUV
Субдискретизация насыщенности : 4:2:0
Битовая глубина : 8 bits
Тип развёртки : Progressive
Бит/(Пиксели*Кадры) : 0.282
Размер потока : 4.02 GiB (68%)
Библиотека кодирования : x264 core 155 r2901M 7d0ff22
Настройки программы : cabac=1 / ref=9 / deblock=1:-3:-3 / analyse=0x3:0x133 / me=umh / subme=11 / psy=1 / psy_rd=1.00:0.00 / mixed_ref=1 / me_range=48 / chroma_me=1 / trellis=2 / 8x8dct=1 / cqm=0 / deadzone=21,11 / fast_pskip=0 / chroma_qp_offset=-2 / threads=9 / lookahead_threads=2 / sliced_threads=0 / nr=0 / decimate=0 / interlaced=0 / bluray_compat=0 / constrained_intra=0 / bframes=10 / b_pyramid=2 / b_adapt=2 / b_bias=0 / direct=3 / weightb=1 / open_gop=0 / weightp=2 / keyint=240 / keyint_min=24 / scenecut=40 / intra_refresh=0 / rc_lookahead=120 / rc=2pass / mbtree=0 / bitrate=6000 / ratetol=1.0 / qcomp=0.70 / qpmin=0 / qpmax=69 / qpstep=4 / cplxblur=20.0 / qblur=0.5 / vbv_maxrate=50000 / vbv_bufsize=62500 / nal_hrd=none / filler=0 / ip_ratio=1.40 / pb_ratio=1.30 / aq=3:0.80
Default : Yes
Forced : No
Цветовой диапазон : Limited
Основные цвета : BT.709
Характеристики трансфера : BT.709
Коэффициенты матрицы : BT.709

Audio #1
Идентификатор : 2
Формат : DTS
Формат/Информация : Digital Theater Systems
Идентификатор кодека : A_DTS
Продолжительность : 1 h 35 min
Вид битрейта : Constant
Битрейт : 1 509 kb/s
Каналы : 6 channels
Расположение каналов : Front: L C R, Side: L R, LFE
Частота : 48.0 kHz
Частота кадров : 93.750 FPS (512 SPF)
Битовая глубина : 24 bits
Метод сжатия : Lossy
Размер потока : 1.01 GiB (17%)
Язык : Russian
Default : Yes
Forced : No

Audio #2
Идентификатор : 3
Формат : AC-3
Формат/Информация : Audio Coding 3
Идентификатор кодека : A_AC3
Продолжительность : 1 h 35 min
Вид битрейта : Constant
Битрейт : 640 kb/s
Каналы : 6 channels
Расположение каналов : Front: L C R, Side: L R, LFE
Частота : 48.0 kHz
Частота кадров : 31.250 FPS (1536 SPF)
Битовая глубина : 16 bits
Метод сжатия : Lossy
Размер потока : 439 MiB (7%)
Язык : Russian
Default : No
Forced : No

Audio #3
Идентификатор : 4
Формат : AC-3
Формат/Информация : Audio Coding 3
Идентификатор кодека : A_AC3
Продолжительность : 1 h 35 min
Вид битрейта : Constant
Битрейт : 640 kb/s
Каналы : 6 channels
Расположение каналов : Front: L C R, Side: L R, LFE
Частота : 48.0 kHz
Частота кадров : 31.250 FPS (1536 SPF)
Битовая глубина : 16 bits
Метод сжатия : Lossy
Размер потока : 439 MiB (7%)
Язык : English
Default : No
Forced : No

Text
Идентификатор : 5
Формат : UTF-8
Идентификатор кодека : S_TEXT/UTF8
Идентификатор кодека/Информация : UTF-8 Plain Text
Продолжительность : 1 h 29 min
Битрейт : 53 b/s
ElementCount : 925
Размер потока : 35.3 KiB (0%)
Язык : Russian
Default : No
Forced : No

Menu
00:00:00.000 : en:Chapter 01
00:01:12.250 : en:Chapter 02
00:10:59.416 : en:Chapter 03
00:21:42.750 : en:Chapter 04
00:34:06.541 : en:Chapter 05
00:44:26.208 : en:Chapter 06
00:55:01.250 : en:Chapter 07
01:08:27.458 : en:Chapter 08
01:21:39.708 : en:Chapter 09


Как качать, Как раздавать - Правила и инструкции
Торрент03 июл 2018, 18:42 [ 03 июл 2018, 18:42 ]

СКАЧАТЬ с просмотром рекламы
Статус-
.torrent скачан242 раз
Размер5.89 ГБ (6 325 904 881)

Вернуться в BD / HD



Кто сейчас на конференции

Сейчас этот форум просматривают: bmxfmx, CEPG, DrAlex666, Jeffrey_1983!, kirha, respaun, Никита Фёдоров, Тимошенко

Ресурс не предоставляет электронные версии произведений, а занимается лишь коллекционированием и каталогизацией ссылок, присылаемых и публикуемых на форуме нашими читателями. Если вы являетесь правообладателем какого-либо представленного материала и не желаете чтобы ссылка на него находилась в нашем каталоге, свяжитесь с нами и мы незамедлительно удалим её. Файлы для обмена на трекере предоставлены пользователями сайта, и администрация не несёт ответственности за их содержание. Просьба не заливать файлы, защищенные авторскими правами, а также файлы нелегального содержания!