Караван / Karwaan [2018, Драма, Комедия, WEB-DLRip 720р] - Скачать торрент бесплатно

BD и HD Фильмы в отличном качестве. Вы можете найти в этом разделе и скачать торрент бесплатно.

Модераторы: Новинки кинематографа, Союз Риперов

BD и HD Фильмы в отличном качестве. Вы можете найти в этом разделе и скачать торрент бесплатно.
Поделиться ВКонтакте Поделиться Facebook Поделиться Twitter Поделиться Mail.RU
АвторСообщение
onissystems

Новичок
Новичок
 
Раздал: 246.46 ГБ
Скачал: 51.47 ГБ
Ратио: 5.378
Сообщения: 6
Зарегистрирован: 07 ноя 2018, 16:51
Карма: 0

Сообщение onissystems » 08 ноя 2018, 09:23

Караван / Karwaan [2018, Драма, Комедия, WEB-DLRip 720р] - Скачать торрент

Название: Караван
Оригинальное название: Karwaan

Дата выхода: 2018
Студия: Ishka Films, RSVP
Жанр: Драма, Комедия
Страна: Индия
Субтитры: Русские (на песни)
Перевод: Любительский (многоголосный)
Продолжительность: 01:53:52
Режиссёр: Акарш Хурана
В ролях: Ирфан Кхан, Дулкар Салман, Митхила Палкар, Амала Акинени, Акаш Хурана, Харбанда Крити, Ян Босток, Р. Бхакти Кляйн, Ричард Джон Ловатт
Описание: Отец Авинаша погибает в автобусной аварии, и его тело отправляют через турагентство, но...не Авинашу. А Авинаш получает тело совершенно неизвестной женщины. И теперь герой со своим причудливым другом Шаукатом отправляется на другой конец страны, чтобы совершить обмен.
Дополнительно: Перевод: Nick, Ket и Anna
Перевод на русский: Anna
Без рекламы
Качество: WEB-DLRip 720р
Формат файла: MKV
Видео: MPEG-4 AVC, 1507 Кбит/с, 1280x546, 24 кадр/с
Аудио: Русский (AC3, 2 ch, 192 Кбит/с)
MediaInfo: General
Unique ID : 214758983027420335041276857500097308913 (0xA191135C15EED39992BD12E27117E8F1)
Complete name : D:\Dowload\out\Fanstudio\Karwaan.2O18.WEB-DLRip 720p.Fanstudio.mkv
Format : Matroska
Format version : Version 2
File size : 1.34 GiB
Duration : 1 h 53 min
Overall bit rate : 1 679 kb/s
Encoded date : UTC 2018-10-17 12:06:20
Writing application : mkvmerge v7.8.0 ('River Man') 32bit built on Apr 3 2015 12:11:22
Writing library : libebml v1.3.1 + libmatroska v1.4.2

Video
ID : 1
Format : AVC
Format/Info : Advanced Video Codec
Format profile : High@L3.1
Format settings : CABAC / 4 Ref Frames
Format settings, CABAC : Yes
Format settings, ReFrames : 4 frames
Format settings, GOP : M=4, N=24
Codec ID : V_MPEG4/ISO/AVC
Duration : 1 h 53 min
Bit rate : 1 507 kb/s
Width : 1 280 pixels
Height : 546 pixels
Display aspect ratio : 2.35:1
Frame rate mode : Constant
Frame rate : 24.000 FPS
Color space : YUV
Chroma subsampling : 4:2:0
Bit depth : 8 bits
Scan type : Progressive
Bits/(Pixel*Frame) : 0.090
Stream size : 1.16 GiB (87%)
Writing library : x264 core 148
Encoding settings : cabac=1 / ref=2 / deblock=1:0:0 / analyse=0x3:0x113 / me=hex / subme=6 / psy=1 / psy_rd=1.00:0.00 / mixed_ref=1 / me_range=16 / chroma_me=1 / trellis=1 / 8x8dct=1 / cqm=0 / deadzone=21,11 / fast_pskip=1 / chroma_qp_offset=-2 / threads=6 / lookahead_threads=1 / sliced_threads=0 / nr=0 / decimate=1 / interlaced=0 / bluray_compat=0 / constrained_intra=0 / bframes=3 / b_pyramid=2 / b_adapt=1 / b_bias=0 / direct=1 / weightb=1 / open_gop=0 / weightp=1 / keyint=250 / keyint_min=24 / scenecut=40 / intra_refresh=0 / rc_lookahead=30 / rc=cbr / mbtree=1 / bitrate=1507 / ratetol=1.0 / qcomp=0.60 / qpmin=0 / qpmax=69 / qpstep=4 / vbv_maxrate=1507 / vbv_bufsize=3014 / nal_hrd=none / filler=0 / ip_ratio=1.40 / aq=1:1.00
Default : Yes
Forced : No

Audio
ID : 2
Format : AC-3
Format/Info : Audio Coding 3
Commercial name : Dolby Digital
Codec ID : A_AC3
Duration : 1 h 53 min
Bit rate mode : Constant
Bit rate : 192 kb/s
Channel(s) : 2 channels
Channel layout : L R
Sampling rate : 44.1 kHz
Frame rate : 28.711 FPS (1536 SPF)
Bit depth : 16 bits
Compression mode : Lossy
Delay relative to video : -41 ms
Stream size : 156 MiB (11%)
Service kind : Complete Main
Default : Yes
Forced : No

Как качать, Как раздавать - Правила и инструкции
Торрент08 ноя 2018, 08:31 [ 08 ноя 2018, 08:31 ]

СКАЧАТЬ с просмотром рекламы
СтатусПроверен Taz
.torrent скачан1 раз
Размер1.34 ГБ (1 433 696 421)

Вернуться в BD / HD



Кто сейчас на конференции

Сейчас этот форум просматривают: belocika, stalker_qwe, марусидзе

Ресурс не предоставляет электронные версии произведений, а занимается лишь коллекционированием и каталогизацией ссылок, присылаемых и публикуемых на форуме нашими читателями. Если вы являетесь правообладателем какого-либо представленного материала и не желаете чтобы ссылка на него находилась в нашем каталоге, свяжитесь с нами и мы незамедлительно удалим её. Файлы для обмена на трекере предоставлены пользователями сайта, и администрация не несёт ответственности за их содержание. Просьба не заливать файлы, защищенные авторскими правами, а также файлы нелегального содержания!