Между нами горы / The Mountain Between Us [2017, Боевик, триллер, драма, мелодрама, приключения, BDRip 1080p | Лицензия] - Скачать торрент бесплатно

BD и HD Фильмы в отличном качестве. Вы можете найти в этом разделе и скачать торрент бесплатно.

Модераторы: Новинки кинематографа, Союз Риперов

BD и HD Фильмы в отличном качестве. Вы можете найти в этом разделе и скачать торрент бесплатно.
Поделиться ВКонтакте Поделиться Facebook Поделиться Twitter Поделиться Mail.RU
АвторСообщение
volsem

Новинки кинематографа
Новинки кинематографа
 
Раздал: 2.69 ПБ
Скачал: 1.05 ПБ
Ратио: 2002.563
Сообщения: 2013
Зарегистрирован: 19 фев 2016, 20:53
Награды: 32
За 100 сообщений (1) За 500 сообщений (1) За 1000 сообщений (1) За 1500 сообщений (1) 5 Тб отданного (1) 10 Тб отданного (1) 15 Тб отданного (1) 20 Тб отданного (1) 30 Тб отданного (1) 10 Тб скаченного (1) 15 Тб скаченного (1) 20 Тб скаченного (1) 30 Тб скаченного (1) 50 Тб скаченного (1) Размер созданных раздач 3 Тб (1) Размер созданных раздач 5 Тб (1) 250 релизов (1) 500 релизов (1) 1000 релизов (1) 1500 релизов (1) За новинки фильмов (1) За новинки книг (1) 2-е место (1) За 2000 полученных спасибо (1) За 4000 полученных спасибо (1) За 8000 полученных спасибо (1) За 10000 полученных спасибо (1) За 15000 полученных спасибо (1) 200 кармы (1) 500 кармы (1) 1000 кармы (1) Халява №3 (1)
Карма: 1860
-2--2--2--2--2--2--2--2--2--2-

Сообщение volsem » 13 дек 2017, 17:13

Между нами горы / The Mountain Between Us [2017, Боевик, триллер, драма, мелодрама, приключения, BDRip 1080p | Лицензия] - Скачать торрент

«Что, если бы твоя жизнь зависела от незнакомца?»

Информация о фильме
Название: Между нами горы
Оригинальное название: The Mountain Between Us
Год выхода: 2017
Жанр: Боевик, триллер, драма, мелодрама, приключения
Режиссер: Хани Абу-Ассад
В ролях: Идрис Эльба, Кейт Уинслет, Бо Бриджес, Дермот Малруни, Линда Соренсон, Винсент Гэйл, Марси Т. Хаус, Ли Мадждуб, Андрес Джозеф

О фильме:
Бен и Алекс, уцелевшие после авиакатастрофы, должны найти общий язык, чтобы выжить в экстремальных условиях далеких заснеженных гор. Когда они понимают, что на помощь к ним никто не придет, они вынуждены отправиться в опасный путь длиной в сотни километров. В борьбе за жизнь между двумя еще вчера незнакомыми людьми неожиданно возникает притяжение.



Страна: США
Студия: 20th Century Fox Film Corporation, Chernin Entertainment
Продолжительность: 1:51:49
Перевод:
Дублированный | Blu-ray EUR
Любительский (многоголосый, закадровый) | Paradox&Omskbird

Файл
Качество: BDRip 1080p
Формат: MKV
Кодек: MPEG-4 AVC
Видео: 1920x804 (2,40:1), 23.976 fps, MPEG-4 AVC ~ 8627 Кbps avg, 0.233 bit/pixel
Аудио: DTS, 48 kHz, 6 ch, ~768.00 kbps avg | русский | Blu-ray EUR
Аудио: AC3, 48 kHz, 6 ch, ~448.00 kbps avg | русский | Blu-ray EUR
Аудио: AC3, 48 kHz, 2 ch, ~192.00 kbps avg | русский | Paradox&Omskbird
Аудио: AC3, 48 kHz, 2 ch, ~192.00 kbps avg | украинский | iTunes
Аудио: DTS, 48,0 kHz, 6 ch, ~1509.00 kbps avg | английский | Оригинал
Субтитры: Русские (Forced, Full), английские (Full, SDH, SDH-color)
Сэмпл
Общее
Уникальный идентификатор : 179922408827340606149319837424657176120 (0x875BCBA4C0D7E057B177B34C2A851638)
Полное имя : The.Mountain.Between.Us.2017.1080p.BluRay.x264.DTS.Rus.Ukr.Eng.mkv
Формат : Matroska
Версия формата : Version 4 / Version 2
Размер файла : 9,17 Гбайт
Продолжительность : 1 ч. 51 м.
Общий поток : 11,7 Мбит/сек
Название фильма : Между нами горы (2017)
Дата кодирования : UTC 2018-02-01 06:10:55
Программа кодирования : mkvmerge v9.7.1 ('Pandemonium') 64bit
Библиотека кодирования : libebml v1.3.4 + libmatroska v1.4.5

Видео
Идентификатор : 1
Формат : AVC
Формат/Информация : Advanced Video Codec
Профиль формата : High@L4.1
Настройки формата : CABAC / 5 Ref Frames
Параметр CABAC формата : Да
Параметр ReFrames формата : 5 кадров
Идентификатор кодека : V_MPEG4/ISO/AVC
Продолжительность : 1 ч. 51 м.
Битрейт : 8627 Кбит/сек
Ширина : 1920 пикселей
Высота : 804 пикселя
Соотношение сторон : 2,40:1
Режим частоты кадров : Постоянный
Частота кадров : 23,976 (24000/1001) кадра/сек
Цветовое пространство : YUV
Субдискретизация насыщенности : 4:2:0
Битовая глубина : 8 бит
Тип развёртки : Прогрессивная
Бит/(Пиксели*Кадры) : 0.233
Размер потока : 6,74 Гбайт (73%)
Заголовок : The.Mountain.Between.Us.2017.1080p.BluRay.x264.DTS.Rus.Ukr.Eng
Библиотека кодирования : x264 core 152 r2851 ba24899
Настройки программы : cabac=1 / ref=5 / deblock=1:-3:-3 / analyse=0x3:0x113 / me=umh / subme=10 / psy=1 / psy_rd=1.01:0.00 / mixed_ref=1 / me_range=32 / chroma_me=1 / trellis=2 / 8x8dct=1 / cqm=1 / deadzone=21,11 / fast_pskip=0 / chroma_qp_offset=-1 / threads=12 / lookahead_threads=2 / sliced_threads=0 / nr=0 / decimate=1 / interlaced=0 / bluray_compat=0 / constrained_intra=0 / bframes=8 / b_pyramid=2 / b_adapt=2 / b_bias=0 / direct=3 / weightb=1 / open_gop=0 / weightp=2 / keyint=230 / keyint_min=23 / scenecut=40 / intra_refresh=0 / rc_lookahead=40 / rc=crf / mbtree=0 / crf=15.5 / qcomp=0.61 / qpmin=5 / qpmax=69 / qpstep=4 / vbv_maxrate=62500 / vbv_bufsize=78125 / crf_max=0.0 / nal_hrd=none / filler=0 / ip_ratio=1.30 / pb_ratio=1.20 / aq=1:0.75
Язык : English
Default : Да
Forced : Нет

Аудио #1
Идентификатор : 2
Формат : DTS
Формат/Информация : Digital Theater Systems
Идентификатор кодека : A_DTS
Продолжительность : 1 ч. 51 м.
Вид битрейта : Постоянный
Битрейт : 768 Кбит/сек
Каналы : 6 каналов
Расположение каналов : Front: L C R, Side: L R, LFE
Частота : 48,0 КГц
Частота кадров : 93,750 кадра/сек (512 SPF)
Битовая глубина : 24 бит
Метод сжатия : С потерями
Размер потока : 614 Мбайт (7%)
Заголовок : DUB | Blu-ray EUR
Язык : Russian
Default : Да
Forced : Нет

Аудио #2
Идентификатор : 3
Формат : AC-3
Формат/Информация : Audio Coding 3
Идентификатор кодека : A_AC3
Продолжительность : 1 ч. 51 м.
Вид битрейта : Постоянный
Битрейт : 448 Кбит/сек
Каналы : 6 каналов
Расположение каналов : Front: L C R, Side: L R, LFE
Частота : 48,0 КГц
Частота кадров : 31,250 кадров/сек (1536 SPF)
Битовая глубина : 16 бит
Метод сжатия : С потерями
Размер потока : 358 Мбайт (4%)
Заголовок : DUB | Blu-ray EUR
Язык : Russian
Default : Нет
Forced : Нет

Аудио #3
Идентификатор : 4
Формат : AC-3
Формат/Информация : Audio Coding 3
Идентификатор кодека : A_AC3
Продолжительность : 1 ч. 51 м.
Вид битрейта : Постоянный
Битрейт : 192 Кбит/сек
Каналы : 2 канала
Расположение каналов : Front: L R
Частота : 48,0 КГц
Частота кадров : 31,250 кадров/сек (1536 SPF)
Битовая глубина : 16 бит
Метод сжатия : С потерями
Размер потока : 154 Мбайт (2%)
Заголовок : MVO | Paradox&Omskbird
Язык : Russian
Default : Нет
Forced : Нет

Аудио #4
Идентификатор : 5
Формат : AC-3
Формат/Информация : Audio Coding 3
Идентификатор кодека : A_AC3
Продолжительность : 1 ч. 51 м.
Вид битрейта : Постоянный
Битрейт : 192 Кбит/сек
Каналы : 2 канала
Расположение каналов : Front: L R
Частота : 48,0 КГц
Частота кадров : 31,250 кадров/сек (1536 SPF)
Битовая глубина : 16 бит
Метод сжатия : С потерями
Размер потока : 154 Мбайт (2%)
Заголовок : DUB | iTunes
Язык : Ukrainian
Default : Нет
Forced : Нет

Аудио #5
Идентификатор : 6
Формат : DTS
Формат/Информация : Digital Theater Systems
Идентификатор кодека : A_DTS
Продолжительность : 1 ч. 51 м.
Вид битрейта : Постоянный
Битрейт : 1509 Кбит/сек
Каналы : 6 каналов
Расположение каналов : Front: L C R, Side: L R, LFE
Частота : 48,0 КГц
Частота кадров : 93,750 кадра/сек (512 SPF)
Битовая глубина : 24 бит
Метод сжатия : С потерями
Размер потока : 1,18 Гбайт (13%)
Заголовок : Original
Язык : English
Default : Нет
Forced : Нет

Текст #1
Идентификатор : 7
Формат : UTF-8
Идентификатор кодека : S_TEXT/UTF8
Идентификатор кодека/Информация : UTF-8 Plain Text
Продолжительность : 1 ч. 45 м.
Битрейт : 0 бит/сек
ElementCount : 5
Размер потока : 205 байт (0%)
Заголовок : Forced
Язык : Russian
Default : Да
Forced : Нет

Текст #2
Идентификатор : 8
Формат : UTF-8
Идентификатор кодека : S_TEXT/UTF8
Идентификатор кодека/Информация : UTF-8 Plain Text
Продолжительность : 1 ч. 51 м.
Битрейт : 46 бит/сек
ElementCount : 985
Размер потока : 37,8 Кбайт (0%)
Заголовок : Full
Язык : Russian
Default : Нет
Forced : Нет

Текст #3
Идентификатор : 9
Формат : UTF-8
Идентификатор кодека : S_TEXT/UTF8
Идентификатор кодека/Информация : UTF-8 Plain Text
Продолжительность : 1 ч. 47 м.
Битрейт : 33 бит/сек
ElementCount : 1070
Размер потока : 26,7 Кбайт (0%)
Заголовок : Full
Язык : English
Default : Нет
Forced : Нет

Текст #4
Идентификатор : 10
Формат : UTF-8
Идентификатор кодека : S_TEXT/UTF8
Идентификатор кодека/Информация : UTF-8 Plain Text
Продолжительность : 1 ч. 48 м.
Битрейт : 41 бит/сек
ElementCount : 1343
Размер потока : 32,9 Кбайт (0%)
Заголовок : SDH
Язык : English
Default : Нет
Forced : Нет

Текст #5
Идентификатор : 11
Формат : UTF-8
Идентификатор кодека : S_TEXT/UTF8
Идентификатор кодека/Информация : UTF-8 Plain Text
Продолжительность : 1 ч. 48 м.
Битрейт : 88 бит/сек
ElementCount : 1334
Размер потока : 70,4 Кбайт (0%)
Заголовок : SDH-Colored
Язык : English
Default : Нет
Forced : Нет

Меню
00:00:00.000 : en:00:00:00.000
00:02:58.595 : en:00:02:58.595
00:08:52.782 : en:00:08:52.782
00:13:15.378 : en:00:13:15.378
00:16:21.480 : en:00:16:21.480
00:21:36.253 : en:00:21:36.253
00:26:51.985 : en:00:26:51.985
00:31:53.370 : en:00:31:53.370
00:38:56.084 : en:00:38:56.084
00:43:45.373 : en:00:43:45.373
00:51:04.311 : en:00:51:04.311
00:57:28.737 : en:00:57:28.737
01:01:22.721 : en:01:01:22.721
01:04:39.417 : en:01:04:39.417
01:07:41.057 : en:01:07:41.057
01:11:06.429 : en:01:11:06.429
01:14:56.534 : en:01:14:56.534
01:19:15.125 : en:01:19:15.125
01:23:48.398 : en:01:23:48.398
01:27:52.476 : en:01:27:52.476
01:32:13.570 : en:01:32:13.570
01:35:41.653 : en:01:35:41.653
01:41:48.269 : en:01:41:48.269
01:45:22.483 : en:01:45:22.483
Как качать, Как раздавать - Правила и инструкции
Торрент01 фев 2018, 11:14 [ 01 фев 2018, 11:14 ]

СКАЧАТЬ с просмотром рекламы
СтатусПроверен volsem
.torrent скачан0 раз
Размер9.17 ГБ (9 846 321 022)

Twixik

Аватара пользователя
Старожил
Старожил
 

Сообщения: 1913

Зарегистрирован: 28 май 2011, 17:05

Откуда: Россия, Питер

Награды: 12
За 100 сообщений (1) За 500 сообщений (1) За 1000 сообщений (1) За 1500 сообщений (1) 5 Тб отданного (1) За 1000 сказанных спасибо (1) За 2000 сказанных спасибо (1) За 3000 сказанных спасибо (1) 200 кармы (1) 500 кармы (1) 1000 кармы (1) Халява №5 (1)
Карма: 4478
-2--2--2--2--2--2--2--2--2--2-

Сообщение Twixik» 19 дек 2017, 12:24

обычная мелодрама, никакого боевика.

INTROMIX

Аватара пользователя
Опытный пользователь
Опытный пользователь
  Предупреждений: 2

Сообщения: 166

Зарегистрирован: 21 авг 2017, 21:55

Награды: 1
За 100 сообщений (1)

Предупреждения: 2

Карма: 110
-1-

Сообщение INTROMIX» 04 янв 2018, 06:45

Так и не дождался стрельбы *вот ...а так фильм на раз под пивас пойдёт...

ruslan_piskunov

Аватара пользователя
Старожил
Старожил
 

Сообщения: 768

Зарегистрирован: 05 дек 2011, 22:46

Откуда: МОСКВА

Награды: 6
За 100 сообщений (1) За 500 сообщений (1) 5 Тб отданного (1) 10 Тб отданного (1) 200 кармы (1) Халява №5 (1)
Карма: 220
-2--2-

Сообщение ruslan_piskunov» 10 янв 2018, 04:18

драма, мелодрама, приключения,но не боевик, триллер.... кто, интересно, эти жанры определяет?

osa193


Постоялец
Постоялец
 

Сообщения: 964

Зарегистрирован: 09 дек 2016, 09:44

Откуда: Москва

Награды: 2
За 100 сообщений (1) За 500 сообщений (1)
Карма: 108
-1-

Сообщение osa193» 11 янв 2018, 00:03

Неприятно было смотреть на межрассовый секас белой еврейской тёлки со страшенным небритым ниггером, это - ужас..

ottello


Опытный пользователь
Опытный пользователь
 

Сообщения: 110

Зарегистрирован: 12 мар 2015, 19:41

Карма: 0

Сообщение ottello» 01 фев 2018, 15:57

Это кому как.Мне фильм понравился и все здорово. В этой категории мелодрама отлично. Сюжет и игра актеров.


Вернуться в BD / HD



Кто сейчас на конференции

Сейчас этот форум просматривают: ilea, kapusta, mad-eddy, olegkaka

Ресурс не предоставляет электронные версии произведений, а занимается лишь коллекционированием и каталогизацией ссылок, присылаемых и публикуемых на форуме нашими читателями. Если вы являетесь правообладателем какого-либо представленного материала и не желаете чтобы ссылка на него находилась в нашем каталоге, свяжитесь с нами и мы незамедлительно удалим её. Файлы для обмена на трекере предоставлены пользователями сайта, и администрация не несёт ответственности за их содержание. Просьба не заливать файлы, защищенные авторскими правами, а также файлы нелегального содержания!