Незнакомцы: Жестокие игры / The Strangers: Prey at Night [2018, Ужасы, BDRip 1080p | Лицензия] - Скачать торрент бесплатно

BD и HD Фильмы в отличном качестве. Вы можете найти в этом разделе и скачать торрент бесплатно.

Модераторы: Новинки кинематографа, Союз Риперов

BD и HD Фильмы в отличном качестве. Вы можете найти в этом разделе и скачать торрент бесплатно.
Поделиться ВКонтакте Поделиться Facebook Поделиться Twitter Поделиться Mail.RU
АвторСообщение
volsem

Новинки кинематографа
Новинки кинематографа
 
Раздал: 2.69 ПБ
Скачал: 1.05 ПБ
Ратио: 2002.563
Сообщения: 2013
Зарегистрирован: 19 фев 2016, 20:53
Награды: 32
За 100 сообщений (1) За 500 сообщений (1) За 1000 сообщений (1) За 1500 сообщений (1) 5 Тб отданного (1) 10 Тб отданного (1) 15 Тб отданного (1) 20 Тб отданного (1) 30 Тб отданного (1) 10 Тб скаченного (1) 15 Тб скаченного (1) 20 Тб скаченного (1) 30 Тб скаченного (1) 50 Тб скаченного (1) Размер созданных раздач 3 Тб (1) Размер созданных раздач 5 Тб (1) 250 релизов (1) 500 релизов (1) 1000 релизов (1) 1500 релизов (1) За новинки фильмов (1) За новинки книг (1) 2-е место (1) За 2000 полученных спасибо (1) За 4000 полученных спасибо (1) За 8000 полученных спасибо (1) За 10000 полученных спасибо (1) За 15000 полученных спасибо (1) 200 кармы (1) 500 кармы (1) 1000 кармы (1) Халява №3 (1)
Карма: 1855
-2--2--2--2--2--2--2--2--2--2-

Сообщение volsem » 22 май 2018, 00:13

Незнакомцы: Жестокие игры / The Strangers: Prey at Night [2018, Ужасы, BDRip 1080p | Лицензия] - Скачать торрент

Название: Незнакомцы: Жестокие игры
Оригинальное название: The Strangers: Prey at Night
Год выпуска: 2018
Жанр: Ужасы
Режиссер: Йоханнес Робертс
В ролях: Кристина Хендрикс, Бэйли Мэдисон, Эмма Белломи, Мартин Хендерсон, Льюис Пуллман, Дэмиэн Маффей, Лиа Энзлин, Леа Робертс, Престон Садлеир

О фильме: Американская семья отправляется в небольшое путешествие - навестить родственников, которые живут в кемпинге. Но автомобильный лагерь оказывается пуст. Под покровом ночи появляются трое психопатов в масках, цель которых не грабить или убивать, а выяснить, какой у каждого из членов семьи личный предел жажды жизни...



Выпущено: США, Bloom
Продолжительность: 01:25:14
Перевод: Дублированный | Лицензия

Качество: BDRip 1080p
Формат: MKV
Видео: MPEG-4 AVC, 1920x804, 13.1 Mbit/s, 23.976 fps
Аудио #01: 48 kHz, DTS, 5.1, 1510 Kbps | Дублированный | RUS |
Аудио #02: 48 kHz, AC3, 5.1, 640 Kbps | Дублированный | RUS |
Аудио #03: 48 kHz, AC3, 5.1, 640 Kbps | Оригинал | ENG |
Субтитры: Русские (full), английские
General
Unique ID : 241969429919551819559401924278493564289 (0xB6099DF85AB9C6ADA71644E3D272CD81)
Complete name : D:Video111The.Strangers.Prey.at.Night.2018.BDRip.1080p.ExKinoRay.mkv
Format : Matroska
Format version : Version 4 / Version 2
File size : 9.53 GiB
Duration : 1 h 25 min
Overall bit rate : 15.9 Mb/s
Movie name : The Strangers Prey at Night 2018 from ExKinoRay
Encoded date : UTC 2018-08-29 16:59:40
Writing application : mkvmerge v7.3.0 ('Nouages') 64bit built on Oct 22 2014 18:53:34
Writing library : libebml v1.3.0 + libmatroska v1.4.1

Video
ID : 1
Format : AVC
Format/Info : Advanced Video Codec
Format profile : High@L4.1
Format settings : CABAC / 5 Ref Frames
Format settings, CABAC : Yes
Format settings, ReFrames : 5 frames
Codec ID : V_MPEG4/ISO/AVC
Duration : 1 h 25 min
Bit rate : 13.1 Mb/s
Width : 1 920 pixels
Height : 804 pixels
Display aspect ratio : 2.40:1
Frame rate mode : Constant
Frame rate : 23.976 (24000/1001) FPS
Color space : YUV
Chroma subsampling : 4:2:0
Bit depth : 8 bits
Scan type : Progressive
Bits/(Pixel*Frame) : 0.355
Stream size : 7.86 GiB (82%)
Writing library : x264 core 148 r2705 3f5ed56
Encoding settings : cabac=1 / ref=5 / deblock=1:-2:-2 / analyse=0x3:0x133 / me=umh / subme=11 / psy=1 / psy_rd=1.20:0.05 / mixed_ref=1 / me_range=48 / chroma_me=1 / trellis=2 / 8x8dct=1 / cqm=0 / deadzone=21,11 / fast_pskip=0 / chroma_qp_offset=-3 / threads=12 / lookahead_threads=2 / sliced_threads=0 / nr=0 / decimate=0 / interlaced=0 / bluray_compat=0 / constrained_intra=0 / bframes=8 / b_pyramid=2 / b_adapt=2 / b_bias=0 / direct=3 / weightb=1 / open_gop=0 / weightp=2 / keyint=240 / keyint_min=23 / scenecut=40 / intra_refresh=0 / rc_lookahead=50 / rc=2pass / mbtree=0 / bitrate=13149 / ratetol=1.0 / qcomp=0.60 / qpmin=0 / qpmax=51 / qpstep=4 / cplxblur=20.0 / qblur=0.5 / vbv_maxrate=50000 / vbv_bufsize=62500 / nal_hrd=none / filler=0 / ip_ratio=1.40 / pb_ratio=1.30 / aq=3:0.80
Language : English
Default : Yes
Forced : No

Audio #1
ID : 2
Format : DTS
Format/Info : Digital Theater Systems
Codec ID : A_DTS
Duration : 1 h 25 min
Bit rate mode : Constant
Bit rate : 1 509 kb/s
Channel(s) : 6 channels
Channel positions : Front: L C R, Side: L R, LFE
Sampling rate : 48.0 kHz
Frame rate : 93.750 FPS (512 SPF)
Bit depth : 24 bits
Compression mode : Lossy
Stream size : 924 MiB (9%)
Title : Dub [License Blu-Ray RUS]
Language : Russian
Default : Yes
Forced : Yes

Audio #2
ID : 3
Format : AC-3
Format/Info : Audio Coding 3
Commercial name : Dolby Digital
Codec ID : A_AC3
Duration : 1 h 25 min
Bit rate mode : Constant
Bit rate : 640 kb/s
Channel(s) : 6 channels
Channel positions : Front: L C R, Side: L R, LFE
Sampling rate : 48.0 kHz
Frame rate : 31.250 FPS (1536 SPF)
Bit depth : 16 bits
Compression mode : Lossy
Stream size : 392 MiB (4%)
Title : Dub [License Blu-Ray RUS]
Language : Russian
Service kind : Complete Main
Default : No
Forced : No

Audio #3
ID : 4
Format : AC-3
Format/Info : Audio Coding 3
Commercial name : Dolby Digital
Codec ID : A_AC3
Duration : 1 h 25 min
Bit rate mode : Constant
Bit rate : 640 kb/s
Channel(s) : 6 channels
Channel positions : Front: L C R, Side: L R, LFE
Sampling rate : 48.0 kHz
Frame rate : 31.250 FPS (1536 SPF)
Bit depth : 16 bits
Compression mode : Lossy
Stream size : 392 MiB (4%)
Title : Original
Language : English
Service kind : Complete Main
Default : No
Forced : No

Text #1
ID : 5
Format : UTF-8
Codec ID : S_TEXT/UTF8
Codec ID/Info : UTF-8 Plain Text
Duration : 1 h 17 min
Bit rate : 35 b/s
Count of elements : 584
Stream size : 20.4 KiB (0%)
Title : Full [License]
Language : Russian
Default : No
Forced : No

Text #2
ID : 6
Format : UTF-8
Codec ID : S_TEXT/UTF8
Codec ID/Info : UTF-8 Plain Text
Duration : 1 h 13 min
Bit rate : 26 b/s
Count of elements : 618
Stream size : 14.3 KiB (0%)
Title : Full
Language : English
Default : No
Forced : No

Text #3
ID : 7
Format : UTF-8
Codec ID : S_TEXT/UTF8
Codec ID/Info : UTF-8 Plain Text
Duration : 1 h 16 min
Bit rate : 32 b/s
Count of elements : 674
Stream size : 18.1 KiB (0%)
Title : SDH
Language : English
Default : No
Forced : No

Menu
00:00:00.000 : en:00:00:00.000
00:04:59.883 : en:00:04:59.883
00:08:49.154 : en:00:08:49.154
00:12:58.111 : en:00:12:58.111
00:17:23.918 : en:00:17:23.918
00:21:53.771 : en:00:21:53.771
00:24:53.909 : en:00:24:53.909
00:30:15.105 : en:00:30:15.105
00:34:45.208 : en:00:34:45.208
00:40:01.899 : en:00:40:01.899
00:44:48.728 : en:00:44:48.728
00:49:48.444 : en:00:49:48.444
00:53:12.606 : en:00:53:12.606
00:56:55.996 : en:00:56:55.996
00:58:20.705 : en:00:58:20.705
01:00:37.884 : en:01:00:37.884
01:05:21.709 : en:01:05:21.709
01:09:17.528 : en:01:09:17.528
01:14:59.036 : en:01:14:59.036
01:18:07.349 : en:01:18:07.349
Как качать, Как раздавать - Правила и инструкции
Торрент29 авг 2018, 21:34 [ 29 авг 2018, 21:34 ]

СКАЧАТЬ с просмотром рекламы
Статус-
.torrent скачан24 раз
Размер9.53 ГБ (10 233 789 237)

ruslan_piskunov

Аватара пользователя
Старожил
Старожил
 

Сообщения: 768

Зарегистрирован: 05 дек 2011, 22:46

Откуда: МОСКВА

Награды: 6
За 100 сообщений (1) За 500 сообщений (1) 5 Тб отданного (1) 10 Тб отданного (1) 200 кармы (1) Халява №5 (1)
Карма: 215
-2--2-

Сообщение ruslan_piskunov» 28 май 2018, 22:17

В сети много отрицательных отзывов. Решил все-таки посмотреть. Я так понял, что это сиквел фильма "Незнакомцы" 2008 года. Первая часть меня в свое время очень порадовала и этот фильм не вызвал отрицательных эмоций. Посмотреть после трудов праведных очень рекомендую. Не шедевр, но на раз сойдет.

leo_777


Эксперт
Эксперт
 

Сообщения: 643

Зарегистрирован: 06 апр 2018, 01:03

Награды: 5
За 100 сообщений (1) За 500 сообщений (1) 200 кармы (1) 500 кармы (1) 1000 кармы (1)
Карма: 1263
-2--2--2--2--2--2--2-

Сообщение leo_777» 28 май 2018, 23:48

В то время понравилась первая часть, а этот фильм не очень. Хотя на вкус и цвет...

      osa193


      Постоялец
      Постоялец
       

      Сообщения: 959

      Зарегистрирован: 09 дек 2016, 09:44

      Откуда: Москва

      Награды: 2
      За 100 сообщений (1) За 500 сообщений (1)
      Карма: 108
      -1-

      Сообщение osa193» 30 май 2018, 18:59

      Местами напряжно, местами нелепо и комично, местами перематывал для ускорения развития сюжета. В целом - киношка на раз.

      zummer13

      Аватара пользователя
      Эксперт
      Эксперт
       

      Сообщения: 675

      Зарегистрирован: 05 май 2014, 15:08

      Откуда: Россия

      Награды: 8
      За 100 сообщений (1) За 500 сообщений (1) 5 Тб отданного (1) 10 Тб отданного (1) За 1000 сказанных спасибо (1) За 2000 сказанных спасибо (1) За 3000 сказанных спасибо (1) За 5000 сказанных спасибо (1)
      Карма: 155
      -1-

      Сообщение zummer13» 02 июн 2018, 20:28

      Надо глянуть !

      ottello


      Опытный пользователь
      Опытный пользователь
       

      Сообщения: 110

      Зарегистрирован: 12 мар 2015, 19:41

      Карма: 0

      Сообщение ottello» 13 июн 2018, 21:24

      Наверное Да ! Посмотрим..Спасибо за отзывы и релизеру тоже.


      Вернуться в BD / HD



      Кто сейчас на конференции

      Сейчас этот форум просматривают: Google [Bot]

      Ресурс не предоставляет электронные версии произведений, а занимается лишь коллекционированием и каталогизацией ссылок, присылаемых и публикуемых на форуме нашими читателями. Если вы являетесь правообладателем какого-либо представленного материала и не желаете чтобы ссылка на него находилась в нашем каталоге, свяжитесь с нами и мы незамедлительно удалим её. Файлы для обмена на трекере предоставлены пользователями сайта, и администрация не несёт ответственности за их содержание. Просьба не заливать файлы, защищенные авторскими правами, а также файлы нелегального содержания!