Обратный отсчёт: Перезапуск / Reset / Zhi ming dao shu [2017, фантастика, драма, WEBRip 1080p] - Скачать торрент бесплатно

BD и HD Фильмы в отличном качестве. Вы можете найти в этом разделе и скачать торрент бесплатно.

Модераторы: Новинки кинематографа, Союз Риперов

BD и HD Фильмы в отличном качестве. Вы можете найти в этом разделе и скачать торрент бесплатно.
Поделиться ВКонтакте Поделиться Facebook Поделиться Twitter Поделиться Mail.RU
АвторСообщение
volsem
Новинки кинематографа
Новинки кинематографа
 
Сообщения: 816
Зарегистрирован: 19 фев 2016, 20:53
Карма: 824
-2--2--2--2--2-

Сообщение volsem » 12 янв 2018, 09:42

Обратный отсчёт: Перезапуск / Reset / Zhi ming dao shu [2017, фантастика, драма, WEBRip 1080p] - Скачать торрент

Информация о фильме
Название: Перезагрузка: обратный отсчёт
Оригинальное название: Reset
Год выхода: 2017
Жанр: фантастика, драма
Режиссер: Hong-Seung Yoon
В ролях: Ян Ми, Уоллес Хо, Лю Чан, Чжан Ихань

О фильме:
У умницы и красавицы Ся Тянь (Ян Ми) есть два смысла жизни: первый – это ее обожаемый сын Лифу (Чжан Ихань), которого она растит в одиночку, а второй – создание машины времени на основе так называемых кротовых нор, исследованию которых она посвятила последние 8 лет своей жизни. Все это в одночасье рушится, когда мрачный злодей Цуй Ху (Уоллес Хо) похищает малыша и в обмен на его жизнь требует у отчаявшейся матери данные ее последних исследований. Чтобы спасти сына, Ся Тянь возвращается на 2 часа в прошлое, где встречает две другие версии себя...
(с) Горчица



Страна: Китай
Продолжительность: 01:45:44
Перевод: Любительский, многоголосый, закадровый (Перевод с китайского: FSG #404 [Nirvanа, Аля Ру и Twix], тайминг и редакция: Горчица, озвучка: студия "Колобок" и "XDUB DORAMA", закадровый текст читали: Den904, DeadSno и Izanami)

Файл
Кодек: V_MPEG4/ISO/AVC
Качество: WEBRip 1080p
Видео: 1920x800, 24.000 FPS, 1923 kb/s
Звук: AC-3, 48.0 kHz, 2ch, 192 kb/s
Субтитры: китайские (хардсаб)
Релиз:
General
Unique ID : 240542587882903451984110511556698822707 (0xB4F6D139F1B691E09CC4162673DBD833)
Complete name : ПЕРЕЗАГРУЗКА [Колобок & XDUB DORAMA].mkv
Format : Matroska
Format version : Version 4 / Version 2
File size : 1.59 GiB
Duration : 1 h 45 min
Overall bit rate : 2 158 kb/s
Encoded date : UTC 2018-01-04 16:09:46
Writing application : mkvmerge v6.2.0 ('Promised Land') built on Apr 28 2013 12:22:01
Writing library : libebml v1.3.0 + libmatroska v1.4.0

Video
ID : 1
Format : AVC
Format/Info : Advanced Video Codec
Format profile : High@L4
Format settings, CABAC : Yes
Format settings, RefFrames : 3 frames
Codec ID : V_MPEG4/ISO/AVC
Duration : 1 h 45 min
Bit rate : 1 923 kb/s
Width : 1 920 pixels
Height : 800 pixels
Display aspect ratio : 2.40:1
Frame rate mode : Constant
Frame rate : 24.000 FPS
Color space : YUV
Chroma subsampling : 4:2:0
Bit depth : 8 bits
Scan type : Progressive
Bits/(Pixel*Frame) : 0.052
Stream size : 1.42 GiB (89%)
Writing library : qiyi.com vtc-test
Default : Yes
Forced : No
Color range : Limited
Color primaries : BT.709
Transfer characteristics : BT.709
Matrix coefficients : BT.709

Audio
ID : 2
Format : AC-3
Format/Info : Audio Coding 3
Format settings, Endianness : Big
Codec ID : A_AC3
Duration : 1 h 45 min
Bit rate mode : Constant
Bit rate : 192 kb/s
Channel(s) : 2 channels
Channel positions : Front: L R
Sampling rate : 48.0 kHz
Frame rate : 31.250 FPS (1536 SPF)
Bit depth : 16 bits
Compression mode : Lossy
Stream size : 145 MiB (9%)
Service kind : Complete Main
Default : Yes
Forced : No
Как качать, Как раздавать - Правила и инструкции
Торрент12 янв 2018, 09:42 [ 12 янв 2018, 09:42 ]

СКАЧАТЬ с просмотром рекламы
СтатусПроверен
.torrent скачан2 раз
Размер1.59 ГБ (1 711 633 092)

gurutibet

Завсегдатай

  Предупреждений: 1

Сообщения: 1208

Зарегистрирован: 28 ноя 2015, 18:04

Откуда: имельщик вовакол!

Предупреждения: 1

Карма: 1709
-2--2--2--2--2--2--2--2--2-

Сообщение gurutibet» 12 янв 2018, 11:56

китайсы радуют,у них спецэффекты более натуральные,чем у пендосо-фашистов! *круто

krokokos

Опытный пользователь

Аватара пользователя
 

Сообщения: 134

Зарегистрирован: 13 фев 2011, 16:46

Откуда: Харкiв , Україна . планета Земля

Карма: 78

Сообщение krokokos» 12 янв 2018, 17:27

gurutibet писал(а):чем у пендосо-фашистов!

Шовинизм так и прет ...
Сталинизм покруче фашизма будет , он еще и дружил с фашизмом , наследнички .

osa193

Эксперт

 

Сообщения: 677

Зарегистрирован: 09 дек 2016, 09:44

Откуда: Москва

Карма: 24

Сообщение osa193» 18 янв 2018, 22:35

Фильм неплохой и вполне годный на один просмотр, но всё впечатление, лично мне, испортила картавая переводчица и её своеобразное произношение слова "Гогошек", которое повторяется не менее сотни раз. Теперь это слово застряло у меня в голове, блин..


Вернуться в BD / HD



Кто сейчас на конференции

Сейчас этот форум просматривают: Bing [Bot], jump23, Meshkan, sevastopol

Ресурс не предоставляет электронные версии произведений, а занимается лишь коллекционированием и каталогизацией ссылок, присылаемых и публикуемых на форуме нашими читателями. Если вы являетесь правообладателем какого-либо представленного материала и не желаете чтобы ссылка на него находилась в нашем каталоге, свяжитесь с нами и мы незамедлительно удалим её. Файлы для обмена на трекере предоставлены пользователями сайта, и администрация не несёт ответственности за их содержание. Просьба не заливать файлы, защищенные авторскими правами, а также файлы нелегального содержания!