Привидение / Каждый день / Every Day [2018, фэнтези, драма, мелодрама, BDRip 1080р] | D - Скачать торрент бесплатно

BD и HD Фильмы в отличном качестве. Вы можете найти в этом разделе и скачать торрент бесплатно.

Модераторы: Новинки кинематографа, Союз Риперов

BD и HD Фильмы в отличном качестве. Вы можете найти в этом разделе и скачать торрент бесплатно.
Поделиться ВКонтакте Поделиться Facebook Поделиться Twitter Поделиться Mail.RU
АвторСообщение
Download more
Аватара пользователя
Модератор Фильмов
Модератор Фильмов
 
Раздал: 22.99 ТБ
Скачал: 9.42 ТБ
Ратио: 129.514
Сообщения: 630
Зарегистрирован: 19 ноя 2016, 16:36
Откуда: г. Астана, Казахстан Encoded by daniyar.esmuhanov
Награды: 14
За 100 сообщений (1) За 500 сообщений (1) 5 Тб отданного (1) 10 Тб отданного (1) 15 Тб отданного (1) 20 Тб отданного (1) 250 релизов (1) За 2000 полученных спасибо (1) За 4000 полученных спасибо (1) 30 рипов (1) 50 рипов (1) 200 кармы (1) 500 кармы (1) Халява №3 (1)
Карма: 593
-2--2--2-

Сообщение Download more » 09 июл 2018, 15:16

Привидение / Каждый день / Every Day [2018, фэнтези, драма, мелодрама, BDRip 1080р] | D - Скачать торрент

Название: Привидение / Каждый день
Оригинальное название: Every Day
Год выхода: 2018
Жанр: фэнтези, драма, мелодрама
Режиссер: Майкл Сакси
В ролях: Энгаури Райс, Джастис Смит, Дженни Росс, Лукас Джейд Зуманн, Кэти Дуглас, Джейкоб Баталон, Иэн Александр, Шон Джонс, Колин Форд

О фильме: "А" - это путешествующий дух, который каждый день просыпается в теле другого подростка мужского или женского пола.



Выпущено: США
Продолжительность: 01:37:24
Озвучивание: Профессиональный (полное дублирование)
Субтитры: английские

Rip by Есмуханов Данияр Исламбекович | daniyar.esmuhanov

Файл
Формат: MKV
Качество: BDRip 1080р
Видео: 1920x804, MPEG4/AVC, High@L4.1, 23,976 (24000/1001) кадра/сек, ~3030 Кбит/сек
Аудио:48,0 КГц, AC3 Dolby Digital, 3/2 (L,C,R,l,r) + LFE ch, 448 kbps Профессиональный (полное дублирование) Мосфильм Мастер | 2018 год
Аудио:48,0 КГц, AC3 Dolby Digital, 3/2 (L,C,R,l,r) + LFE ch, 448 kbps Оригинальная аудиодорожка: английский
Общее
Уникальный идентификатор : 218973665276091643845986516150957691798 (0xA4BCCB3CF2BB21C39052EE78B2F8D396)
Полное имя : D:\Данияр\Раздача\Every Day.daniyar.esmuhanov\Привидение (фэнтези, драма, мелодрама) 2018.mkv
Формат : Matroska
Версия формата : Version 4 / Version 2
Размер файла : 1,94 Гбайт
Продолжительность : 1 ч. 37 м.
Название фильма : Исходник: Blu-ray Disc | Автор рипа: Есмуханов Данияр Исламбекович | daniyar.esmuhanov
Программа кодирования : mkvmerge v8.3.0 ('Over the Horizon') 64bit
Библиотека кодирования : libebml v1.3.1 + libmatroska v1.4.2

Видео
Идентификатор : 1
Формат : AVC
Формат/Информация : Advanced Video Codec
Профиль формата : High@L4.1
Настройки формата : CABAC / 5 Ref Frames
Параметр CABAC формата : Да
Параметр RefFrames формата : 5 кадров
Идентификатор кодека : V_MPEG4/ISO/AVC
Продолжительность : 1 ч. 37 м.
Вид битрейта : Переменный
Переменный битрейт : 62,5 Мбит/сек | 2030 Кбит/сек | 3030 Кбит/сек
Битрейт : 3030 Кбит/сек
Ширина : 1920 пикселей
Высота : 804 пикселя
Соотношение сторон : 2,40:1
Режим частоты кадров : Постоянный
Частота кадров : 23,976 (24000/1001) кадра/сек
Цветовое пространство : YUV
Субдискретизация насыщенности : 4:2:0
Битовая глубина : 8 бит
Тип развёртки : Прогрессивная
Бит/(Пиксели*Кадры) : 0.055
Размер потока : 1,33 Гбайт (69%)
Заголовок : Исходник: Blu-ray Disc | Автор рипа: Есмуханов Данияр Исламбекович | daniyar.esmuhanov
Библиотека кодирования : x264 core 148 r2795 aaa9aa8
Настройки программы : cabac=1 / ref=5 / deblock=1:0:0 / analyse=0x3:0x133 / me=umh / subme=10 / psy=1 / psy_rd=1.00:0.00 / mixed_ref=1 / me_range=24 / chroma_me=1 / trellis=2 / 8x8dct=1 / cqm=0 / deadzone=21,11 / fast_pskip=1 / chroma_qp_offset=-2 / threads=96 / lookahead_threads=6 / sliced_threads=0 / nr=0 / decimate=1 / interlaced=0 / bluray_compat=0 / constrained_intra=0 / bframes=8 / b_pyramid=2 / b_adapt=2 / b_bias=0 / direct=3 / weightb=1 / open_gop=0 / weightp=2 / keyint=250 / keyint_min=23 / scenecut=40 / intra_refresh=0 / rc_lookahead=60 / rc=abr / mbtree=1 / bitrate=3030 / ratetol=1.0 / qcomp=0.60 / qpmin=0 / qpmax=69 / qpstep=4 / vbv_maxrate=31250 / vbv_bufsize=4100 / nal_hrd=none / filler=0 / ip_ratio=1.40 / aq=1:1.00
Язык : English
Default : Да
Forced : Да
Цветовой диапазон : Limited
Основные цвета : BT.709
Характеристики трансфера : BT.709
Коэффициенты матрицы : BT.709

Аудио #1
Идентификатор : 2
Формат : AC-3
Формат/Информация : Audio Coding 3
Идентификатор кодека : A_AC3
Продолжительность : 1 ч. 37 м.
Вид битрейта : Постоянный
Битрейт : 448 Кбит/сек
Каналы : 6 каналов
Расположение каналов : Front: L C R, Side: L R, LFE
Частота : 48,0 КГц
Частота кадров : 31,250 кадров/сек (1536 SPF)
Битовая глубина : 16 бит
Метод сжатия : С потерями
Размер потока : 312 Мбайт (16%)
Заголовок : Профессиональный (полное дублирование) Мосфильм Мастер | 2018 год
Язык : Russian
ServiceKind/String : Complete Main
Default : Да
Forced : Да

Аудио #2
Идентификатор : 3
Формат : AC-3
Формат/Информация : Audio Coding 3
Идентификатор кодека : A_AC3
Продолжительность : 1 ч. 37 м.
Вид битрейта : Постоянный
Битрейт : 448 Кбит/сек
Каналы : 6 каналов
Расположение каналов : Front: L C R, Side: L R, LFE
Частота : 48,0 КГц
Частота кадров : 31,250 кадров/сек (1536 SPF)
Битовая глубина : 16 бит
Метод сжатия : С потерями
Размер потока : 312 Мбайт (16%)
Язык : English
ServiceKind/String : Complete Main
Default : Нет
Forced : Нет

Текст #1
Идентификатор : 4
Формат : UTF-8
Идентификатор кодека : S_TEXT/UTF8
Идентификатор кодека/Информация : UTF-8 Plain Text
Продолжительность : 1 ч. 29 м.
Битрейт : 57 бит/сек
ElementCount : 1370
Размер потока : 37,8 Кбайт (0%)
Язык : English
Default : Нет
Forced : Нет

Текст #2
Идентификатор : 5
Формат : UTF-8
Идентификатор кодека : S_TEXT/UTF8
Идентификатор кодека/Информация : UTF-8 Plain Text
Продолжительность : 1 ч. 30 м.
Битрейт : 60 бит/сек
ElementCount : 1448
Размер потока : 40,3 Кбайт (0%)
Язык : English
Default : Нет
Forced : Нет

Меню
00:00:00.000 : en:00:00:00.000
00:06:17.794 : en:00:06:17.794
00:13:16.421 : en:00:13:16.421
00:18:18.180 : en:00:18:18.180
00:23:56.185 : en:00:23:56.185
00:29:25.347 : en:00:29:25.347
00:37:50.143 : en:00:37:50.143
00:41:46.212 : en:00:41:46.212
00:49:05.317 : en:00:49:05.317
00:55:00.756 : en:00:55:00.756
01:00:40.846 : en:01:00:40.846
01:06:54.677 : en:01:06:54.677
01:13:31.699 : en:01:13:31.699
01:20:35.205 : en:01:20:35.205
01:26:06.870 : en:01:26:06.870
01:32:08.732 : en:01:32:08.732





Как качать, Как раздавать - Правила и инструкции
Торрент09 июл 2018, 15:16 [ 09 июл 2018, 15:16 ]

СКАЧАТЬ с просмотром рекламы
СтатусПроверен volsem
.torrent скачан229 раз
Размер1.94 ГБ (2 087 577 059)
Раздаю свой рипы со скоростью отдачи 100 кБ/с - Скачал сам?! Дай скачать другим, не уходи с раздачи!!!


Вернуться в BD / HD



Кто сейчас на конференции

Сейчас этот форум просматривают: Bing [Bot], katya1992.10

Ресурс не предоставляет электронные версии произведений, а занимается лишь коллекционированием и каталогизацией ссылок, присылаемых и публикуемых на форуме нашими читателями. Если вы являетесь правообладателем какого-либо представленного материала и не желаете чтобы ссылка на него находилась в нашем каталоге, свяжитесь с нами и мы незамедлительно удалим её. Файлы для обмена на трекере предоставлены пользователями сайта, и администрация не несёт ответственности за их содержание. Просьба не заливать файлы, защищенные авторскими правами, а также файлы нелегального содержания!