Прощай, Кристофер Робин / Goodbye Christopher Robin [2017, семейный, биография, история, BDRip 720p | iTunes] - Скачать торрент бесплатно

BD и HD Фильмы в отличном качестве. Вы можете найти в этом разделе и скачать торрент бесплатно.

Модераторы: Новинки кинематографа, Союз Риперов

BD и HD Фильмы в отличном качестве. Вы можете найти в этом разделе и скачать торрент бесплатно.
Поделиться ВКонтакте Поделиться Facebook Поделиться Twitter Поделиться Mail.RU
АвторСообщение
volsem
Новинки кинематографа
Новинки кинематографа
 
Сообщения: 816
Зарегистрирован: 19 фев 2016, 20:53
Карма: 824
-2--2--2--2--2-

Сообщение volsem » 05 янв 2018, 10:32

Прощай, Кристофер Робин / Goodbye Christopher Robin [2017, семейный, биография, история, BDRip 720p | iTunes] - Скачать торрент

Информация о фильме
Название: Прощай, Кристофер Робин
Оригинальное название: Goodbye Christopher Robin

Год выпуска: 2017
Жанр: семейный, биография, история
Режиссер: Саймон Кёртис
В ролях: Марго Робби Донал Глисон Келли Макдоналд Фиби Уоллер-Бридж Алекс Лоутер Стивен Кэмпбелл Мур Джеральдин Сомервилль Нико Мираллегро Саймон Уильямс Анджела Холмс

О фильме:
Картина расскажет о взаимоотношениях между А. А. Милном и его сыном Кристофером Робином, чьи игрушки вдохновили писателя на создание волшебного мира повестей о Винни-Пухе.



Страна: Великобритания, DJ Films, Fox Searchlight Pictures
Перевод: Профессиональный (многоголосый) [iTunes]
Продолжительность: 01:47:00
Субтитры: Английские

Файл
Формат: mkv
Качество: BDRip 720p
Видео: MPEG-4 AVC, 5775 Кбит/с, 1280x690
Аудио#1 Русский (AC3, 6 ch, 384 Кбит/с)
Аудио#2 английский (DTS, 6 ch, 1509 Кбит/сек)

Общее
Уникальный идентификатор : 206642705229520871618143147917524719441 (0x9B75EFF81329CF5298FA5369202DD751)
Полное имя : C:UsersВDownloadsVideopP0W4aj.P061H.2O17.P.BDRip.72Op.mkv
Формат : Matroska
Версия формата : Version 2
Размер файла : 5,75 Гбайт
Продолжительность : 1 ч. 47 м.
Общий поток : 7695 Кбит/сек
Дата кодирования : UTC 2018-01-12 02:19:05
Программа кодирования : mkvmerge v8.3.0 ('Over the Horizon') 64bit
Библиотека кодирования : libebml v1.3.1 + libmatroska v1.4.2

Видео
Идентификатор : 1
Формат : AVC
Формат/Информация : Advanced Video Codec
Профиль формата : High@L4.1
Параметр CABAC формата : Да
Параметр ReFrames формата : 4 кадра
Идентификатор кодека : V_MPEG4/ISO/AVC
Продолжительность : 1 ч. 47 м.
Битрейт : 5775 Кбит/сек
Ширина : 1280 пикселей
Высота : 690 пикселей
Соотношение сторон : 1,85:1
Режим частоты кадров : Постоянный
Частота кадров : 23,976 (24000/1001) кадра/сек
Цветовое пространство : YUV
Субдискретизация насыщенности : 4:2:0
Битовая глубина : 8 бит
Тип развёртки : Прогрессивная
Бит/(Пиксели*Кадры) : 0.273
Размер потока : 4,32 Гбайт (75%)
Язык : English
Default : Да
Forced : Нет

Аудио #1
Идентификатор : 2
Формат : AC-3
Формат/Информация : Audio Coding 3
Расширение режима : CM (complete main)
Параметр Endianness формата : Big
Идентификатор кодека : A_AC3
Продолжительность : 1 ч. 46 м.
Вид битрейта : Постоянный
Битрейт : 384 Кбит/сек
Каналы : 6 каналов
Расположение каналов : Front: L C R, Side: L R, LFE
Частота : 48,0 КГц
Частота кадров : 31,250 кадров/сек (1536 spf)
Битовая глубина : 16 бит
Метод сжатия : С потерями
Размер потока : 294 Мбайт (5%)
Язык : Russian
Default : Да
Forced : Нет

Аудио #2
Идентификатор : 3
Формат : DTS
Формат/Информация : Digital Theater Systems
Режим : 16
Параметр Endianness формата : Big
Идентификатор кодека : A_DTS
Продолжительность : 1 ч. 47 м.
Вид битрейта : Постоянный
Битрейт : 1509 Кбит/сек
Каналы : 6 каналов
Расположение каналов : Front: L C R, Side: L R, LFE
Частота : 48,0 КГц
Частота кадров : 93,750 кадра/сек (512 spf)
Битовая глубина : 24 бит
Метод сжатия : С потерями
Размер потока : 1,13 Гбайт (20%)
Язык : English
Default : Нет
Forced : Нет

Текст
Идентификатор : 4
Формат : PGS
Режим смешивания : zlib
Идентификатор кодека : S_HDMV/PGS
Идентификатор кодека/Информация : Picture based subtitle format used on BDs/HD-DVDs
Продолжительность : 1 ч. 41 м.
Битрейт : 25,7 Кбит/сек
Count of elements : 4161
Размер потока : 18,6 Мбайт (0%)
Язык : English
Default : Нет
Forced : Нет

Меню
00:00:00.000 : en:
00:04:03.952 : en:
00:07:01.171 : en:
00:10:32.632 : en:
00:13:40.528 : en:
00:16:48.591 : en:
00:20:43.409 : en:
00:25:44.793 : en:
00:30:36.752 : en:
00:35:25.582 : en:
00:40:50.740 : en:
00:48:22.108 : en:
00:52:32.733 : en:
00:57:53.595 : en:
01:03:35.812 : en:
01:07:38.513 : en:
01:12:43.859 : en:
01:18:55.731 : en:
01:21:45.609 : en:
01:25:16.653 : en:
01:29:10.428 : en:
01:32:27.917 : en:
01:35:55.917 : en:
01:41:03.266 : en:


Как качать, Как раздавать - Правила и инструкции
Торрент12 янв 2018, 23:38 [ 12 янв 2018, 23:38 ]

СКАЧАТЬ с просмотром рекламы
СтатусПроверен volsem
.torrent скачан0 раз
Размер5.75 ГБ (6 175 654 963)

osa193

Эксперт

 

Сообщения: 677

Зарегистрирован: 09 дек 2016, 09:44

Откуда: Москва

Карма: 24

Сообщение osa193» 15 янв 2018, 00:11

Успел под эту киношку перечитать все последние новости на смарте. Фильм чисто детский - для младших дошкольников, для взрослого населения малоинтересный. Жаль потеряное время...


Вернуться в BD / HD



Кто сейчас на конференции

Сейчас этот форум просматривают: jump23, Meshkan, sevastopol

Ресурс не предоставляет электронные версии произведений, а занимается лишь коллекционированием и каталогизацией ссылок, присылаемых и публикуемых на форуме нашими читателями. Если вы являетесь правообладателем какого-либо представленного материала и не желаете чтобы ссылка на него находилась в нашем каталоге, свяжитесь с нами и мы незамедлительно удалим её. Файлы для обмена на трекере предоставлены пользователями сайта, и администрация не несёт ответственности за их содержание. Просьба не заливать файлы, защищенные авторскими правами, а также файлы нелегального содержания!