Санта и компания / Santa & Cie [2017, комедия, семейный, BDRip 1080p | iTunes] - Скачать торрент бесплатно

BD и HD Фильмы в отличном качестве. Вы можете найти в этом разделе и скачать торрент бесплатно.

Модераторы: Новинки кинематографа, Союз Риперов

BD и HD Фильмы в отличном качестве. Вы можете найти в этом разделе и скачать торрент бесплатно.
Поделиться ВКонтакте Поделиться Facebook Поделиться Twitter Поделиться Mail.RU
АвторСообщение
wolf1245
Аватара пользователя
V.I.P.
V.I.P.
 
Раздал: 199.27 ТБ
Скачал: 14.07 ТБ
Ратио: 30.594
Сообщения: 4193
Зарегистрирован: 14 апр 2012, 23:34
Откуда: Вильнюс
Награды: 39
За 100 сообщений (1) За 500 сообщений (1) За 1000 сообщений (1) За 1500 сообщений (1) За 2000 сообщений (1) За 3000 сообщений (1) 5 Тб отданного (1) 10 Тб отданного (1) 15 Тб отданного (1) 20 Тб отданного (1) 30 Тб отданного (1) 10 Тб скаченного (1) 15 Тб скаченного (1) 20 Тб скаченного (1) 30 Тб скаченного (1) 50 Тб скаченного (1) Размер созданных раздач 3 Тб (1) Размер созданных раздач 5 Тб (1) Размер созданных раздач 10 Тб (1) Размер созданных раздач 15 Тб (1) 250 релизов (1) 500 релизов (1) 1000 релизов (1) 1500 релизов (1) 2000 релизов (1) 3000 релизов (1) За новинки сериалов (1) За новинки музыки (1) За 2000 полученных спасибо (1) За 4000 полученных спасибо (1) За 8000 полученных спасибо (1) За 10000 полученных спасибо (1) За 15000 полученных спасибо (1) 200 кармы (1) 500 кармы (1) 1000 кармы (1) Орден от Админа (1) Верный пользователь (1) Халява №3 (1)
Карма: 1255
-2--2--2--2--2--2--2-

Сообщение wolf1245 » 12 апр 2018, 06:18

Санта и компания / Santa & Cie [2017, комедия, семейный, BDRip 1080p | iTunes] - Скачать торрент

Информация о фильме
Год выхода: 2017
Наименование: Санта и компания
Оригинальное наименование: Santa & Cie
Произведено: Франция, Бельгия
Жанр: комедия, семейный
Режиссер постановщик: Ален Шаба
В главных ролях: Ален Шаба, Голшифте Фарахани, Пио Мармай, Бруно Санчес, Луиз Шаба, Одри Тоту, Давид Марсе, Грегуар Людиг, Йохан Дионне

О фильме: Прямо перед самым Рождеством 92 000 эльфов, ответственных за изготовление новогодних подарков для малышей, сражает неведомый недуг! Санте ничего не остается, как запрячь своих летающих оленей и поспешить на Землю за лекарством, чтобы вылечить милых помощников и спасти чудесный праздник. Одна проблема - никто не признает в н​ем самого главного в мире волшебника...



Файл
Качество: BDRip 1080p
Видео: MPEG-4 AVC, 1920x804, 10500 kbps, 24,000 fps
Звук#1: русский, AC3, 6 ch, 48 kHz, 384 kbps | iTunes
Звук#2: французский, DTS 5.1, 48 kHz, 1509 kbps | оригинал
Субтитры: французские
Перевод: Дублированный | iTunes
Продолжительность: 01:40:12

Общее
Уникальный идентификатор : 229981824852760453354834803551211895623 (0xAD04E3689A8983FB820311C2A8A03B47)
Полное имя : G:DelugeSanta&Cie BDRip1080p.mkv
Формат : Matroska
Версия формата : Version 4 / Version 2
Размер файла : 8,67 Гбайт
Продолжительность : 1 ч. 40 м.
Общий поток : 12,4 Мбит/сек
Дата кодирования : UTC 2018-05-04 11:33:13
Программа кодирования : mkvmerge v9.5.0 ('Quiet Fire') 64bit
Библиотека кодирования : libebml v1.3.4 + libmatroska v1.4.5

Видео
Идентификатор : 1
Формат : AVC
Формат/Информация : Advanced Video Codec
Профиль формата : High@L4.1
Настройки формата : CABAC / 5 Ref Frames
Параметр CABAC формата : Да
Параметр RefFrames формата : 5 кадров
Идентификатор кодека : V_MPEG4/ISO/AVC
Продолжительность : 1 ч. 40 м.
Битрейт : 10,5 Мбит/сек
Ширина : 1920 пикселей
Высота : 804 пикселя
Соотношение сторон : 2,40:1
Режим частоты кадров : Постоянный
Частота кадров : 24,000 кадра/сек
Цветовое пространство : YUV
Субдискретизация насыщенности : 4:2:0
Битовая глубина : 8 бит
Тип развёртки : Прогрессивная
Бит/(Пиксели*Кадры) : 0.283
Размер потока : 7,34 Гбайт (85%)
Библиотека кодирования : x264 core 142 r2479 dd79a61
Настройки программы : cabac=1 / ref=5 / deblock=1:-3:-3 / analyse=0x3:0x133 / me=umh / subme=11 / psy=1 / psy_rd=1.00:0.00 / mixed_ref=1 / me_range=48 / chroma_me=1 / trellis=2 / 8x8dct=1 / cqm=0 / deadzone=21,11 / fast_pskip=1 / chroma_qp_offset=-2 / threads=12 / lookahead_threads=3 / sliced_threads=0 / nr=0 / decimate=1 / interlaced=0 / bluray_compat=0 / constrained_intra=0 / bframes=10 / b_pyramid=2 / b_adapt=2 / b_bias=0 / direct=3 / weightb=1 / open_gop=0 / weightp=0 / keyint=240 / keyint_min=24 / scenecut=40 / intra_refresh=0 / rc_lookahead=40 / rc=2pass / mbtree=1 / bitrate=10500 / ratetol=1.0 / qcomp=0.60 / qpmin=0 / qpmax=69 / qpstep=4 / cplxblur=20.0 / qblur=0.5 / vbv_maxrate=62500 / vbv_bufsize=78125 / nal_hrd=none / filler=0 / ip_ratio=1.40 / aq=1:1.00
Default : Да
Forced : Нет
Цветовой диапазон : Limited
Основные цвета : BT.709
Характеристики трансфера : BT.709
Коэффициенты матрицы : BT.709

Аудио #1
Идентификатор : 2
Формат : AC-3
Формат/Информация : Audio Coding 3
Идентификатор кодека : A_AC3
Продолжительность : 1 ч. 40 м.
Вид битрейта : Постоянный
Битрейт : 384 Кбит/сек
Каналы : 6 каналов
Расположение каналов : Front: L C R, Side: L R, LFE
Частота : 48,0 КГц
Частота кадров : 31,250 кадров/сек (1536 SPF)
Битовая глубина : 16 бит
Метод сжатия : С потерями
Размер потока : 275 Мбайт (3%)
Язык : Russian
Default : Да
Forced : Нет

Аудио #2
Идентификатор : 3
Формат : DTS
Формат/Информация : Digital Theater Systems
Идентификатор кодека : A_DTS
Продолжительность : 1 ч. 40 м.
Вид битрейта : Постоянный
Битрейт : 1509 Кбит/сек
Каналы : 6 каналов
Расположение каналов : Front: L C R, Side: L R, LFE
Частота : 48,0 КГц
Частота кадров : 93,750 кадра/сек (512 SPF)
Битовая глубина : 24 бит
Метод сжатия : С потерями
Размер потока : 1,06 Гбайт (12%)
Язык : French
Default : Нет
Forced : Нет

Текст #1
Идентификатор : 4
Формат : UTF-8
Идентификатор кодека : S_TEXT/UTF8
Идентификатор кодека/Информация : UTF-8 Plain Text
Продолжительность : 10 с. 0 мс.
Битрейт : 131 бит/сек
ElementCount : 4
Размер потока : 164 байт (0%)
Язык : French
Default : Да
Forced : Нет

Текст #2
Идентификатор : 5
Формат : UTF-8
Идентификатор кодека : S_TEXT/UTF8
Идентификатор кодека/Информация : UTF-8 Plain Text
Продолжительность : 1 ч. 40 м.
Битрейт : 71 бит/сек
ElementCount : 1992
Размер потока : 52,7 Кбайт (0%)
Язык : French
Default : Нет
Forced : Нет
Как качать, Как раздавать - Правила и инструкции
Торрент17 май 2018, 03:32 [ 17 май 2018, 03:32 ]

СКАЧАТЬ с просмотром рекламы
Статус-
.torrent скачан0 раз
Размер8.67 ГБ (9 311 200 215)


Вернуться в BD / HD



Кто сейчас на конференции

Сейчас этот форум просматривают: byryndyk, kvovan2, Pavel77777777777777, sergkh, Snake_001

Ресурс не предоставляет электронные версии произведений, а занимается лишь коллекционированием и каталогизацией ссылок, присылаемых и публикуемых на форуме нашими читателями. Если вы являетесь правообладателем какого-либо представленного материала и не желаете чтобы ссылка на него находилась в нашем каталоге, свяжитесь с нами и мы незамедлительно удалим её. Файлы для обмена на трекере предоставлены пользователями сайта, и администрация не несёт ответственности за их содержание. Просьба не заливать файлы, защищенные авторскими правами, а также файлы нелегального содержания!