Судная ночь. Начало / The First Purge [2018, Ужасы, фантастика, боевик, триллер, BDRip 1080p | Лицензия] - Скачать торрент бесплатно

BD и HD Фильмы в отличном качестве. Вы можете найти в этом разделе и скачать торрент бесплатно.

Модераторы: Новинки кинематографа, Союз Риперов

BD и HD Фильмы в отличном качестве. Вы можете найти в этом разделе и скачать торрент бесплатно.
Поделиться ВКонтакте Поделиться Facebook Поделиться Twitter Поделиться Mail.RU
АвторСообщение
volsem

Новинки кинематографа
Новинки кинематографа
 
Раздал: 2.7 ПБ
Скачал: 1.06 ПБ
Ратио: 2002.552
Сообщения: 2013
Зарегистрирован: 19 фев 2016, 20:53
Награды: 32
За 100 сообщений (1) За 500 сообщений (1) За 1000 сообщений (1) За 1500 сообщений (1) 5 Тб отданного (1) 10 Тб отданного (1) 15 Тб отданного (1) 20 Тб отданного (1) 30 Тб отданного (1) 10 Тб скаченного (1) 15 Тб скаченного (1) 20 Тб скаченного (1) 30 Тб скаченного (1) 50 Тб скаченного (1) Размер созданных раздач 3 Тб (1) Размер созданных раздач 5 Тб (1) 250 релизов (1) 500 релизов (1) 1000 релизов (1) 1500 релизов (1) За новинки фильмов (1) За новинки книг (1) 2-е место (1) За 2000 полученных спасибо (1) За 4000 полученных спасибо (1) За 8000 полученных спасибо (1) За 10000 полученных спасибо (1) За 15000 полученных спасибо (1) 200 кармы (1) 500 кармы (1) 1000 кармы (1) Халява №3 (1)
Карма: 1880
-2--2--2--2--2--2--2--2--2--2-

Сообщение volsem » 24 сен 2018, 00:22

Судная ночь. Начало / The First Purge [2018, Ужасы, фантастика, боевик, триллер, BDRip 1080p | Лицензия] - Скачать торрент

Информация о фильме
Название: Судная ночь. Начало
Оригинальное название: The First Purge
Год выпуска: 2018
Жанр: Ужасы, фантастика, боевик, триллер
Режиссер: Герард МакМюррей
В ролях: И'лан Ноэль, Лекс Скотт Дэвис, Джойван Вейд, Магга, Патрик Дарро, Мариса Томей, Лорен Луна Велес, Кристен Солис, Ротими Пол, Мо

О фильме:
Хотели бы вы жить в идеальном мире, где нет преступности, безработицы и войн? Единственная плата за такое счастливое будущее - это одна ночь абсолютного беззакония в году. Ночь, когда дозволено всё. Согласны поучаствовать в таком социальном эксперименте?



Страна: США
Студия: Blumhouse Productions, Perfect World Pictures, Platinum Dunes
Продолжительность: 01:37:25
Перевод: Дублированный | Лицензия

Качество: BDRip 1080p
Видео: MPEG-4 AVC, 1920x804, 12.2 Mbit/s, 23.976 fps
Аудио #01: 48 kHz, DTS, 5.1, 768 Kbps | Лицензия | RUS |
Аудио #02: 48 kHz, AC3, 5.1, 448 Kbps | Лицензия | RUS |
Аудио #03: 48 kHz, DTS, 5.1, 1510 Kbps | Оригинал | ENG |
Субтитры: Русские (Forced. full), английские (Full, SDH, SDH Colored)



General
Unique ID : 123793411920688325432779293053064330588 (0x5D21BE6FCF783F4BE22485866DB43D5C)
Complete name : D:Video111The.First.Purge.2018.BDRip.1080p.selezen.mkv
Format : Matroska
Format version : Version 4
File size : 10.2 GiB
Duration : 1 h 37 min
Overall bit rate : 15.0 Mb/s
Movie name : The First Purge (2018) селезень
Encoded date : UTC 2018-11-04 21:50:02
Writing application : mkvmerge v28.0.0 ('Voice In My Head') 64-bit
Writing library : libebml v1.3.6 + libmatroska v1.4.9

Video
ID : 1
Format : AVC
Format/Info : Advanced Video Codec
Format profile : High@L4.1
Format settings : CABAC / 5 Ref Frames
Format settings, CABAC : Yes
Format settings, ReFrames : 5 frames
Codec ID : V_MPEG4/ISO/AVC
Duration : 1 h 37 min
Bit rate : 12.2 Mb/s
Width : 1 920 pixels
Height : 804 pixels
Display aspect ratio : 2.40:1
Frame rate mode : Constant
Frame rate : 23.976 (24000/1001) FPS
Color space : YUV
Chroma subsampling : 4:2:0
Bit depth : 8 bits
Scan type : Progressive
Bits/(Pixel*Frame) : 0.331
Stream size : 8.32 GiB (82%)
Title : selezen
Writing library : x264 core 148 r2705 3f5ed56
Encoding settings : cabac=1 / ref=5 / deblock=1:-2:-2 / analyse=0x3:0x133 / me=umh / subme=11 / psy=1 / psy_rd=1.20:0.05 / mixed_ref=1 / me_range=48 / chroma_me=1 / trellis=2 / 8x8dct=1 / cqm=0 / deadzone=21,11 / fast_pskip=0 / chroma_qp_offset=-3 / threads=12 / lookahead_threads=3 / sliced_threads=0 / nr=0 / decimate=0 / interlaced=0 / bluray_compat=0 / constrained_intra=0 / bframes=10 / b_pyramid=2 / b_adapt=2 / b_bias=0 / direct=3 / weightb=1 / open_gop=0 / weightp=2 / keyint=240 / keyint_min=23 / scenecut=40 / intra_refresh=0 / rc_lookahead=50 / rc=2pass / mbtree=0 / bitrate=12233 / ratetol=1.0 / qcomp=0.60 / qpmin=0 / qpmax=51 / qpstep=4 / cplxblur=20.0 / qblur=0.5 / vbv_maxrate=50000 / vbv_bufsize=62500 / nal_hrd=none / filler=0 / ip_ratio=1.40 / pb_ratio=1.30 / aq=3:0.80
Language : English
Default : Yes
Forced : No

Audio #1
ID : 2
Format : DTS
Format/Info : Digital Theater Systems
Codec ID : A_DTS
Duration : 1 h 37 min
Bit rate mode : Constant
Bit rate : 768 kb/s
Channel(s) : 6 channels
Channel layout : C L R Ls Rs LFE
Sampling rate : 48.0 kHz
Frame rate : 93.750 FPS (512 SPF)
Bit depth : 24 bits
Compression mode : Lossy
Stream size : 535 MiB (5%)
Title : Dub [License]
Language : Russian
Default : Yes
Forced : Yes

Audio #2
ID : 3
Format : AC-3
Format/Info : Audio Coding 3
Commercial name : Dolby Digital
Codec ID : A_AC3
Duration : 1 h 37 min
Bit rate mode : Constant
Bit rate : 448 kb/s
Channel(s) : 6 channels
Channel layout : L R C LFE Ls Rs
Sampling rate : 48.0 kHz
Frame rate : 31.250 FPS (1536 SPF)
Bit depth : 16 bits
Compression mode : Lossy
Stream size : 312 MiB (3%)
Title : Dub [License]
Language : Russian
Service kind : Complete Main
Default : No
Forced : No

Audio #3
ID : 4
Format : DTS
Format/Info : Digital Theater Systems
Codec ID : A_DTS
Duration : 1 h 37 min
Bit rate mode : Constant
Bit rate : 1 509 kb/s
Channel(s) : 6 channels
Channel layout : C L R Ls Rs LFE
Sampling rate : 48.0 kHz
Frame rate : 93.750 FPS (512 SPF)
Bit depth : 24 bits
Compression mode : Lossy
Stream size : 1.03 GiB (10%)
Title : Original
Language : English
Default : No
Forced : No

Text #1
ID : 5
Format : UTF-8
Codec ID : S_TEXT/UTF8
Codec ID/Info : UTF-8 Plain Text
Duration : 1 h 34 min
Bit rate : 0 b/s
Count of elements : 14
Stream size : 418 Bytes (0%)
Title : Forced
Language : Russian
Default : Yes
Forced : Yes

Text #2
ID : 6
Format : UTF-8
Codec ID : S_TEXT/UTF8
Codec ID/Info : UTF-8 Plain Text
Duration : 1 h 36 min
Bit rate : 74 b/s
Count of elements : 1243
Stream size : 52.9 KiB (0%)
Title : Full
Language : Russian
Default : No
Forced : No

Text #3
ID : 7
Format : UTF-8
Codec ID : S_TEXT/UTF8
Codec ID/Info : UTF-8 Plain Text
Duration : 1 h 30 min
Bit rate : 59 b/s
Count of elements : 1244
Stream size : 39.4 KiB (0%)
Title : Full
Language : English
Default : No
Forced : No

Text #4
ID : 8
Format : UTF-8
Codec ID : S_TEXT/UTF8
Codec ID/Info : UTF-8 Plain Text
Duration : 1 h 33 min
Bit rate : 69 b/s
Count of elements : 1496
Stream size : 47.2 KiB (0%)
Title : SDH
Language : English
Default : No
Forced : No

Text #5
ID : 9
Format : UTF-8
Codec ID : S_TEXT/UTF8
Codec ID/Info : UTF-8 Plain Text
Duration : 1 h 36 min
Bit rate : 138 b/s
Count of elements : 1880
Stream size : 98.2 KiB (0%)
Title : SDH Colored
Language : English
Default : No
Forced : No

Menu
00:00:00.000 : en:Chapter 1
00:06:25.635 : en:Chapter 2
00:11:59.802 : en:Chapter 3
00:16:18.769 : en:Chapter 4
00:21:18.110 : en:Chapter 5
00:25:56.388 : en:Chapter 6
00:30:54.144 : en:Chapter 7
00:35:31.212 : en:Chapter 8
00:38:41.110 : en:Chapter 9
00:43:02.455 : en:Chapter 10
00:48:34.411 : en:Chapter 11
00:53:35.087 : en:Chapter 12
00:55:59.565 : en:Chapter 13
00:59:13.049 : en:Chapter 14
01:05:25.713 : en:Chapter 15
01:09:31.793 : en:Chapter 16
01:13:23.733 : en:Chapter 17
01:19:47.533 : en:Chapter 18
01:24:50.043 : en:Chapter 19
01:29:54.931 : en:Chapter 20


Релиз от:

Как качать, Как раздавать - Правила и инструкции
Торрент05 ноя 2018, 04:14 [ 05 ноя 2018, 04:14 ]

СКАЧАТЬ с просмотром рекламы
Статус-
.torrent скачан827 раз
Размер10.18 ГБ (10 930 889 007)

vik11111

Аватара пользователя
Новичок
Новичок
 

Сообщения: 6

Зарегистрирован: 14 фев 2018, 15:52

Награды: 1
Халява №3 (1)
Карма: 0

Сообщение vik11111» 26 сен 2018, 12:45

когда лицуха


Вернуться в BD / HD



Кто сейчас на конференции

Сейчас этот форум просматривают: belocika, марусидзе

Ресурс не предоставляет электронные версии произведений, а занимается лишь коллекционированием и каталогизацией ссылок, присылаемых и публикуемых на форуме нашими читателями. Если вы являетесь правообладателем какого-либо представленного материала и не желаете чтобы ссылка на него находилась в нашем каталоге, свяжитесь с нами и мы незамедлительно удалим её. Файлы для обмена на трекере предоставлены пользователями сайта, и администрация не несёт ответственности за их содержание. Просьба не заливать файлы, защищенные авторскими правами, а также файлы нелегального содержания!