Уотергейт. Крушение Белого дома / Mark Felt: The Man Who Brought Down the White House [2017, триллер, драма, биография, история, BDRip 720p | iTunes] - Скачать торрент бесплатно

BD и HD Фильмы в отличном качестве. Вы можете найти в этом разделе и скачать торрент бесплатно.

Модераторы: Новинки кинематографа, Союз Риперов

BD и HD Фильмы в отличном качестве. Вы можете найти в этом разделе и скачать торрент бесплатно.
Поделиться ВКонтакте Поделиться Facebook Поделиться Twitter Поделиться Mail.RU
АвторСообщение
volsem
Новинки кинематографа
Новинки кинематографа
 
Сообщения: 816
Зарегистрирован: 19 фев 2016, 20:53
Карма: 824
-2--2--2--2--2-

Сообщение volsem » 23 дек 2017, 00:37

Уотергейт. Крушение Белого дома / Mark Felt: The Man Who Brought Down the White House [2017, триллер, драма, биография, история, BDRip 720p | iTunes] - Скачать торрент

Название: Уотергейт. Крушение Белого дома
Оригинальное название: Mark Felt: The Man Who Brought Down the White House

Год выхода: 2017
Произведено: США
Жанр: триллер, драма, биография, история
Режиссер постановщик: Питер Ландесман
В главных ролях: Лиам Нисон, Дайан Лэйн, Мартон Чокаш, Тони Голдуин, Айк Баринхолц, Джош Лукас, Венди МакЛендон-Кови, Кейт Уолш, Брайан Д Арси Джеймс, Майка Монро

Описание: Фильм о главном звене самого громкого скандала ХХ века «Уотергейт», который привел к преждевременной отставке президента Ричарда Никсона. Личность человека, передававшего прессе обличительную информацию на главу государства, долгое время была окутана тайной и установлена лишь спустя 30 лет после его собственного признания. Шокирующая невероятная история, основанная на реальных событиях, о жизни блестящего и бескомпромиссного Заместителя Начальника ФБР Марка Фелта, который пожертвовал всем - своей семьей, своей карьерой и своей свободой, чтобы мир узнал правду.



Качество: BDRip 720p
Формат: MKV
Кодек: MPEG-4 AVC
Видео: ~ 4384 Кбит/с, 1280x640
Аудио: Русский (AC3, 6 ch, 384 Кбит/с), английский (DTS, 6 ch, 1510 Кбит/с)
Перевод: Профессиональный многоголосый | [iTunes]
Продолжительность: 01:42:57
Общее
Уникальный идентификатор : 235167309893267028400252014929683282504 (0xB0EB938F5F684E4AB75B73D9A29DFA48)
Полное имя : D:\Загрузки\WaTTergate.2O17.P.BDRip.72Op.mkv
Формат : Matroska
Версия формата : Version 2
Размер файла : 4,52 Гбайт
Продолжительность : 1 ч. 42 м.
Общий поток : 6279 Кбит/сек
Дата кодирования : UTC 2018-01-08 19:09:20
Программа кодирования : mkvmerge v8.3.0 ('Over the Horizon') 64bit
Библиотека кодирования : libebml v1.3.1 + libmatroska v1.4.2

Видео
Идентификатор : 1
Формат : AVC
Формат/Информация : Advanced Video Codec
Профиль формата : High@L4.1
Настройки формата : CABAC / 9 Ref Frames
Параметр CABAC формата : Да
Параметр RefFrames формата : 9 кадров
Идентификатор кодека : V_MPEG4/ISO/AVC
Продолжительность : 1 ч. 42 м.
Битрейт : 4384 Кбит/сек
Ширина : 1280 пикселей
Высота : 640 пикселей
Соотношение сторон : 2,000
Режим частоты кадров : Постоянный
Частота кадров : 23,976 (24000/1001) кадра/сек
Цветовое пространство : YUV
Субдискретизация насыщенности : 4:2:0
Битовая глубина : 8 бит
Тип развёртки : Прогрессивная
Бит/(Пиксели*Кадры) : 0.223
Размер потока : 3,15 Гбайт (70%)
Библиотека кодирования : x264 core 149 r2771+45 509cceb 7mod [8-bit@all X86_64]
Настройки программы : cabac=1 / ref=9 / deblock=1:-3:-3 / analyse=0x3:0x113 / me=umh / subme=10 / psy=1 / fade_compensate=0.00 / psy_rd=0.90:0.10 / mixed_ref=1 / me_range=32 / chroma_me=1 / trellis=2 / 8x8dct=1 / cqm=0 / deadzone=21,11 / fast_pskip=0 / chroma_qp_offset=-2 / threads=12 / lookahead_threads=2 / sliced_threads=0 / nr=0 / decimate=1 / interlaced=0 / bluray_compat=0 / constrained_intra=0 / fgo=0 / bframes=8 / b_pyramid=2 / b_adapt=2 / b_bias=0 / direct=3 / weightb=1 / open_gop=0 / weightp=2 / keyint=250 / keyint_min=23 / scenecut=40 / intra_refresh=0 / rc_lookahead=40 / rc=crf / mbtree=0 / crf=18.5000 / qcomp=0.70 / qpmin=0:0:0 / qpmax=69:69:69 / qpstep=4 / vbv_maxrate=30000 / vbv_bufsize=30000 / crf_max=0.0 / nal_hrd=none / filler=0 / ip_ratio=1.40 / pb_ratio=1.30 / aq=3:1.00 / aq-sensitivity=10.00 / aq-factor=1.00:1.00:1.00 / aq2=0 / aq3=2:[0.50:0.50]:[0.50:0.50]:[0.50:0.50]:[0.50:0.50] / aq3-sensitivity=10.00 / aq3-factor=[1.00:1.00]:[1.00:1.00]:[1.00:1.00] / aq3-boundary=192:64:24
Язык : English
Default : Да
Forced : Нет
Цветовой диапазон : Limited
Коэффициенты матрицы : BT.709

Аудио #1
Идентификатор : 2
Формат : AC-3
Формат/Информация : Audio Coding 3
Идентификатор кодека : A_AC3
Продолжительность : 1 ч. 42 м.
Вид битрейта : Постоянный
Битрейт : 384 Кбит/сек
Каналы : 6 каналов
Расположение каналов : Front: L C R, Side: L R, LFE
Частота : 48,0 КГц
Частота кадров : 31,250 кадров/сек (1536 SPF)
Битовая глубина : 16 бит
Метод сжатия : С потерями
Размер потока : 282 Мбайт (6%)
Язык : Russian
ServiceKind/String : Complete Main
Default : Да
Forced : Нет

Аудио #2
Идентификатор : 3
Формат : DTS
Формат/Информация : Digital Theater Systems
Идентификатор кодека : A_DTS
Продолжительность : 1 ч. 42 м.
Вид битрейта : Постоянный
Битрейт : 1509 Кбит/сек
Каналы : 6 каналов
Расположение каналов : Front: L C R, Side: L R, LFE
Частота : 48,0 КГц
Частота кадров : 93,750 кадра/сек (512 SPF)
Битовая глубина : 24 бит
Метод сжатия : С потерями
Размер потока : 1,09 Гбайт (24%)
Язык : English
Default : Нет
Forced : Нет
Как качать, Как раздавать - Правила и инструкции
Торрент09 янв 2018, 01:08 [ 09 янв 2018, 01:08 ]

СКАЧАТЬ с просмотром рекламы
СтатусПроверен volsem
.torrent скачан2457 раз
Размер4.52 ГБ (4 848 667 438)

Вернуться в BD / HD



Кто сейчас на конференции

Сейчас этот форум просматривают: Juliasik, nvv2005, vik13or, zuev1964

Ресурс не предоставляет электронные версии произведений, а занимается лишь коллекционированием и каталогизацией ссылок, присылаемых и публикуемых на форуме нашими читателями. Если вы являетесь правообладателем какого-либо представленного материала и не желаете чтобы ссылка на него находилась в нашем каталоге, свяжитесь с нами и мы незамедлительно удалим её. Файлы для обмена на трекере предоставлены пользователями сайта, и администрация не несёт ответственности за их содержание. Просьба не заливать файлы, защищенные авторскими правами, а также файлы нелегального содержания!