Ненастоящий папа / Hoy se arregla el mundo [2022, Драма, комедия, WEB-DLRip-AVC | Ракета Релизинг] - Скачать торрент бесплатно

Новые фильмы сконверченные с blu-ray дисков. HD Фильмы в отличном качестве. Скачать торрент бесплатно вы можете тут.

Модераторы: Новинки кинематографа, Союз Риперов

Новые фильмы сконверченные с blu-ray дисков.HD Фильмы в отличном качестве. Для того чтобы скачать торрент бесплатно можно обойтись без регистрации.
Поделиться ВКонтакте Поделиться Facebook Поделиться Twitter Поделиться Mail.RU
АвторСообщение
vamo
Аватара пользователя
Модератор Фильмов
Модератор Фильмов
 
Раздал: 439.24 ТБ
Скачал: 52.89 ТБ
Ратио: 88.752
Сообщения: 3167
Зарегистрирован: 06 май 2012, 09:02
Награды: 25
За 100 сообщений (1) За 500 сообщений (1) За 1000 сообщений (1) За 1500 сообщений (1) За 2000 сообщений (1) 5 Тб отданного (1) 10 Тб отданного (1) 15 Тб отданного (1) 20 Тб отданного (1) 30 Тб отданного (1) 10 Тб скаченного (1) 15 Тб скаченного (1) 20 Тб скаченного (1) 30 Тб скаченного (1) 50 Тб скаченного (1) 250 релизов (1) 500 релизов (1) За 2000 полученных спасибо (1) За 4000 полученных спасибо (1) За 8000 полученных спасибо (1) За 10000 полученных спасибо (1) За 15000 полученных спасибо (1) 200 кармы (1) 500 кармы (1) 1000 кармы (1)

Сообщение vamo » 02 июл 2022, 15:07

Ненастоящий папа / Hoy se arregla el mundo [2022, Драма, комедия, WEB-DLRip-AVC | Ракета Релизинг] - Скачать торрент

Информация о фильме
Название: Ненастоящий папа
Оригинальное название: Hoy se arregla el mundo
Год выхода: 2022
Жанр: Драма, комедия
Режиссер: Ариэль Виноград

В ролях: Леонардо Сбаралья, Наталия Орейро, Бенджамин Отеро, Луис Луке, Чаро Лопес, Мартин Пироянски, Хосе Луис Джиоиа, Габриэль Коррадо, Херардо Романо, Марио Аларкон

Слоган: «Что если вы нашли то, что не искали?»

О фильме: Дэвид — типичный холостяк и противник долгих отношений. Но однажды его жизнь переворачивается с ног на голову, когда его бывшая оставляет на него заботу о девятилетнем мальчике, его сыне. Мало того, что Дэвид не привык к таким поворотам, так еще и выясняется, что биологический отец мальчика не он. Теперь Дэвид готов на все, чтобы перепоручить свои родительские обязанности настоящему папе. Вот только действительно ли он этого хочет?



Выпущено: Аргентина / Patagonik Film Group
Продолжительность: 01:53:40
Перевод: Любительский (многоголосый закадровый) [Ракета Релизинг]

Файл
Качество: WEB-DLRip-AVC
Формат: MKV
Видео: MPEG-4 AVC/x264@L4.1, 2640 Кбит/сек, 1024x426 (2.404) at 24.000 fps
Аудио #1: Русский: AC3, 2 ch, 320 Кбит/сек
Аудио #2: Испанский: AC3, 6 ch, 448 Кбит/сек
Аудио #3: Английский: AC3, 6 ch, 448 Кбит/сек
Субтитры: английские, испанские, украинские [вшитые отключаемые]

Общее
Уникальный идентификатор : 301935356581114340071205192642610085965 (0xE326A26B5F76FEE4770921616088404D)
Полное имя : F:\1.ФИЛЬМЫ\01. ФИЛЬМЫ\Ненастоящий папа Hoy se arregla el mundo (2022)\Nenastoyashchiy papa Hoy se arregla el mundo (2022) WEB-DLRip-AVC.mkv
Формат : Matroska
Версия формата : Version 4
Размер файла : 3,06 Гбайт
Продолжительность : 1 ч. 53 м.
Общий поток : 3 856 Кбит/сек
Дата кодирования : UTC 2022-07-02 07:17:19
Программа кодирования : mkvmerge v68.0.0 ('The Curtain') 64-bit
Библиотека кодирования : libebml v1.4.2 + libmatroska v1.6.4
Авторское право : *=Z=*
Attachments : poster.jpg
Язык : und

Видео
Идентификатор : 1
Формат : AVC
Формат/Информация : Advanced Video Codec
Профиль формата : High@L4.1
Настройки формата : CABAC / 16 Ref Frames
Параметр CABAC формата : Да
Параметр RefFrames формата : 16 кадров
Идентификатор кодека : V_MPEG4/ISO/AVC
Продолжительность : 1 ч. 53 м.
Битрейт : 2 640 Кбит/сек
Ширина : 1 024 пикселя
Высота : 426 пикселей
Соотношение сторон : 2,40:1
Режим частоты кадров : Постоянный
Частота кадров : 24,000 кадра/сек
Цветовое пространство : YUV
Субдискретизация насыщенности : 4:2:0
Битовая глубина : 8 бит
Тип развёртки : Прогрессивная
Бит/(Пиксели*Кадры) : 0.252
Размер потока : 2,09 Гбайт (68%)
Заголовок : Argentina / Patagonik Film Group
Библиотека кодирования : x264 core 159 r2991 1771b55
Настройки программы : cabac=1 / ref=16 / deblock=1:-3:-3 / analyse=0x3:0x133 / me=umh / subme=10 / psy=1 / psy_rd=1.00:0.15 / mixed_ref=1 / me_range=32 / chroma_me=0 / trellis=2 / 8x8dct=1 / cqm=0 / deadzone=21,11 / fast_pskip=1 / chroma_qp_offset=-2 / threads=17 / lookahead_threads=3 / sliced_threads=0 / nr=0 / decimate=0 / interlaced=0 / bluray_compat=0 / constrained_intra=0 / bframes=10 / b_pyramid=2 / b_adapt=2 / b_bias=10 / direct=3 / weightb=1 / open_gop=0 / weightp=2 / keyint=240 / keyint_min=24 / scenecut=40 / intra_refresh=0 / rc_lookahead=60 / rc=2pass / mbtree=0 / bitrate=2640 / ratetol=1.0 / qcomp=0.70 / qpmin=1 / qpmax=69 / qpstep=4 / cplxblur=20.0 / qblur=0.5 / vbv_maxrate=5000 / vbv_bufsize=4000 / nal_hrd=none / filler=0 / ip_ratio=1.40 / pb_ratio=1.30 / aq=1:0.60
Язык : Spanish
Default : Да
Forced : Нет
Цветовой диапазон : Limited
Основные цвета : BT.709
Характеристики трансфера : BT.709
Коэффициенты матрицы : BT.709

Аудио #1
Идентификатор : 2
Формат : AC-3
Формат/Информация : Audio Coding 3
Коммерческое название : Dolby Digital
Идентификатор кодека : A_AC3
Продолжительность : 1 ч. 53 м.
Вид битрейта : Постоянный
Битрейт : 320 Кбит/сек
Каналы : 2 канала
Channel layout : L R
Частота : 44,1 КГц
Частота кадров : 28,711 кадров/сек (1536 SPF)
Битовая глубина : 16 бит
Метод сжатия : С потерями
Размер потока : 260 Мбайт (8%)
Заголовок : MVO (Rocket Rebeling)
Язык : Russian
Service kind : Complete Main
Default : Нет
Forced : Да

Аудио #2
Идентификатор : 3
Формат : AC-3
Формат/Информация : Audio Coding 3
Коммерческое название : Dolby Digital
Идентификатор кодека : A_AC3
Продолжительность : 1 ч. 53 м.
Вид битрейта : Постоянный
Битрейт : 448 Кбит/сек
Каналы : 6 каналов
Channel layout : L R C LFE Ls Rs
Частота : 48,0 КГц
Частота кадров : 31,250 кадров/сек (1536 SPF)
Битовая глубина : 32 бит
Метод сжатия : С потерями
Размер потока : 364 Мбайт (12%)
Заголовок : Original (Spanish)
Язык : Spanish
Service kind : Complete Main
Default : Да
Forced : Нет

Аудио #3
Идентификатор : 4
Формат : AC-3
Формат/Информация : Audio Coding 3
Коммерческое название : Dolby Digital
Идентификатор кодека : A_AC3
Продолжительность : 1 ч. 53 м.
Вид битрейта : Постоянный
Битрейт : 448 Кбит/сек
Каналы : 6 каналов
Channel layout : L R C LFE Ls Rs
Частота : 48,0 КГц
Частота кадров : 31,250 кадров/сек (1536 SPF)
Битовая глубина : 32 бит
Метод сжатия : С потерями
Размер потока : 364 Мбайт (12%)
Заголовок : Dub (English)
Язык : English
Service kind : Complete Main
Default : Нет
Forced : Нет

Текст #1
Идентификатор : 5
Формат : ASS
Идентификатор кодека : S_TEXT/ASS
Идентификатор кодека/Информация : Advanced Sub Station Alpha
Продолжительность : 1 ч. 49 м.
Битрейт : 120 бит/сек
Частота кадров : 0,265 кадр/сек
Count of elements : 1735
Метод сжатия : Без потерь
Размер потока : 96,1 Кбайт (0%)
Язык : English
Default : Да
Forced : Нет

Текст #2
Идентификатор : 6
Формат : ASS
Идентификатор кодека : S_TEXT/ASS
Идентификатор кодека/Информация : Advanced Sub Station Alpha
Продолжительность : 1 ч. 49 м.
Битрейт : 150 бит/сек
Частота кадров : 0,265 кадр/сек
Count of elements : 1744
Метод сжатия : Без потерь
Размер потока : 121 Кбайт (0%)
Язык : Spanish
Default : Да
Forced : Нет

Текст #3
Идентификатор : 7
Формат : ASS
Идентификатор кодека : S_TEXT/ASS
Идентификатор кодека/Информация : Advanced Sub Station Alpha
Продолжительность : 1 ч. 49 м.
Битрейт : 172 бит/сек
Частота кадров : 0,265 кадр/сек
Count of elements : 1735
Метод сжатия : Без потерь
Размер потока : 138 Кбайт (0%)
Язык : Ukrainian
Default : Да
Forced : Нет


Как качать, Как раздавать - Правила и инструкции
Торрент02 июл 2022, 15:07 [ 02 июл 2022, 15:07 ]

СКАЧАТЬ с просмотром рекламы
СтатусПроверен
.torrent скачан0 раз
Размер3.06 ГБ (3 287 736 832)

Вернуться в BDRip/HDRip

Кто сейчас на конференции

Сейчас этот форум просматривают: нет зарегистрированных пользователей

Ресурс не предоставляет электронные версии произведений, а занимается лишь коллекционированием и каталогизацией ссылок, присылаемых и публикуемых на форуме нашими читателями. Если вы являетесь правообладателем какого-либо представленного материала и не желаете чтобы ссылка на него находилась в нашем каталоге, свяжитесь с нами и мы незамедлительно удалим её. Файлы для обмена на трекере предоставлены пользователями сайта, и администрация не несёт ответственности за их содержание. Просьба не заливать файлы, защищенные авторскими правами, а также файлы нелегального содержания!