Ладья (1 сезон: 1-8 серии из 8) / The Rook [2019, Фэнтези, драма, триллер, WEB-DL (1080p), Профессиональный (многоголосый, закадровый) - HDRezka Studio] - Скачать торрент бесплатно

Модераторы: Кандидат в Союз Риперов, Модераторы Сериалы, мультсериалы, Союз Риперов

Поделиться ВКонтакте Поделиться Facebook Поделиться Twitter Поделиться Mail.RU
АвторСообщение
VLAD71
Аватара пользователя
Пользователь
Пользователь
 
Раздал: 147.4 ТБ
Скачал: 40.77 ТБ
Ратио: 623.151
Сообщения: 86
Зарегистрирован: 17 дек 2017, 05:16
Карма: 49

Сообщение VLAD71 » 15 авг 2019, 16:36

Ладья (1 сезон: 1-8 серии из 8) / The Rook [2019, Фэнтези, драма, триллер, WEB-DL (1080p), Профессиональный (многоголосый, закадровый) - HDRezka Studio] - Скачать торрент

Название: Ладья
Оригинальное название: The Rook
Год выхода: 2019
Жанр: Фэнтези, драма, триллер
Режиссеры: Чина Му-Ен, Кари Скогланд, Суну Гонера

В ролях: Эмма Гринвелл, Джон Флетчер, Адриан Лестер, Рут Маделей, Оливия Манн, Ронан Рафтери, Джоэли Ричардсон, Джошуа Сквайр, Катрин Стэдмен, Тоби Кордес и др.

О сериале: В центре сюжета сериала, основанного на одноименном романе Дэниела О’Мэлли, находится Мифанви Томас — девушка из Лондона, которая однажды просыпается посреди горы трупов и не может вспомнить, кто она такая и что с ней случилось. Вскоре героиня выясняет, что работает в сверхсекретной службе Великобритании, состоящей из людей со сверхспособностями, и носит псевдоним Ладья. Организация защищает страну от паранормальных явлений и событий, а также полумифических созданий. Девушка быстро понимает, что не может доверять никому в своем окружении, ведь кто-то из агенства предал её и стер память...

Страна: США
Студии: Carpool Entertainment, Character 7, Lionsgate
Продолжительность: ~00:50:00
Перевод: Профессиональный (многоголосый закадровый) HDRezka Studio
Субтитры: Английские



Файл
Формат: MKV
Качество: WEB-DL 1080p

Видео: MPEG-4 AVC, ~ 8000 Кбит/с, 1920x1080
Аудио RUS: 48 kHz, AC3, 2 ch, ~192.00 kbps avg
Аудио ENG: 48 kHz, E-AC, 6 ch, ~640.00 kbps avg


Общее
Уникальный идентификатор: 258793970021983292985441775677021257541 (0xC2B1E7D7510605712130E2B8F8867F45)
Полное имя: The.Rook.S01.1080p.HDRezkaThe Rook.S01Е01.1080p.HDRezka.mkv
Формат: Matroska
Версия формата: Version 4
Размер файла: 3,04 Гбайт
Продолжительность: 50 м. 46 с.
Общий поток: 8560 Кбит/сек
Дата кодирования: UTC 2019-08-15 02:23:28
Программа кодирования: mkvmerge v36.0.0 ('Is That Jazz?') 64-bit
Библиотека кодирования: libebml v1.3.9 + libmatroska v1.5.2
Attachments: poster.jpg

Видео
Идентификатор: 1
Формат: AVC
Формат/Информация: Advanced Video Codec
Профиль формата: High@L4
Настройки формата: CABAC / 4 Ref Frames
Параметр CABAC формата: Да
Параметр RefFrames формата: 4 кадра
Идентификатор кодека: V_MPEG4/ISO/AVC
Продолжительность: 50 м. 46 с.
Вид битрейта: Постоянный
Битрейт: 7725 Кбит/сек
Номинальный битрейт: 10000 Кбит/сек
Ширина: 1920 пикселей
Высота: 1080 пикселей
Соотношение сторон: 16:9
Режим частоты кадров: Постоянный
Частота кадров: 23,976 (24000/1001) кадра/сек
Цветовое пространство: YUV
Субдискретизация насыщенности: 4:2:0
Битовая глубина: 8 бит
Тип развёртки: Прогрессивная
Бит/(Пиксели*Кадры): 0.155
Размер потока: 2,74 Гбайт (90%)
Default: Да
Forced: Нет
Цветовой диапазон: Limited
Основные цвета: BT.709
Характеристики трансфера: BT.709
Коэффициенты матрицы: BT.709

Аудио #1
Идентификатор: 2
Формат: AC-3
Формат/Информация: Audio Coding 3
Коммерческое название: Dolby Digital
Идентификатор кодека: A_AC3
Продолжительность: 50 м. 46 с.
Вид битрейта: Постоянный
Битрейт: 192 Кбит/сек
Каналы: 2 канала
ChannelLayout: L R
Частота: 48,0 КГц
Частота кадров: 31,250 кадров/сек (1536 SPF)
Битовая глубина: 16 бит
Метод сжатия: С потерями
Размер потока: 69,7 Мбайт (2%)
Заголовок: HDRezka
Язык: Russian
Default: Да
Forced: Нет

Аудио #2
Идентификатор: 3
Формат: E-AC-3
Формат/Информация: Enhanced AC-3
Коммерческое название: Dolby Digital Plus
Идентификатор кодека: A_EAC3
Продолжительность: 50 м. 46 с.
Вид битрейта: Постоянный
Битрейт: 640 Кбит/сек
Каналы: 6 каналов
ChannelLayout: L R C LFE Ls Rs
Частота: 48,0 КГц
Частота кадров: 31,250 кадров/сек (1536 SPF)
Метод сжатия: С потерями
Размер потока: 232 Мбайт (7%)
Язык: English
Default: Нет
Forced: Нет

Текст #1
Идентификатор: 4
Формат: UTF-8
Идентификатор кодека: S_TEXT/UTF8
Идентификатор кодека/Информация: UTF-8 Plain Text
Продолжительность: 45 м. 21 с.
Битрейт: 41 бит/сек
ElementCount: 439
Размер потока: 13,9 Кбайт (0%)
Заголовок: English
Язык: English
Default: Нет
Forced: Нет

Текст #2
Идентификатор: 5
Формат: UTF-8
Идентификатор кодека: S_TEXT/UTF8
Идентификатор кодека/Информация: UTF-8 Plain Text
Продолжительность: 48 м. 37 с.
Битрейт: 50 бит/сек
ElementCount: 718
Размер потока: 18,1 Кбайт (0%)
Заголовок: English SDH
Язык: English
Default: Нет
Forced: Нет
Как качать, Как раздавать - Правила и инструкции
Торрент15 авг 2019, 16:36 [ 15 авг 2019, 16:36 ]

СКАЧАТЬ с просмотром рекламы
СтатусПроверен
.torrent скачан0 раз
Размер25.7 ГБ (27 600 050 988)

Twixik

Аватара пользователя
Старожил
Старожил
 

Сообщения: 2415

Зарегистрирован: 28 май 2011, 17:05

Откуда: Россия, Питер

Награды: 13
За 100 сообщений (1) За 500 сообщений (1) За 1000 сообщений (1) За 1500 сообщений (1) За 2000 сообщений (1) 5 Тб отданного (1) За 1000 сказанных спасибо (1) За 2000 сказанных спасибо (1) За 3000 сказанных спасибо (1) 200 кармы (1) 500 кармы (1) 1000 кармы (1) Халява №5 (1)
Карма: 6254
-2--2--2--2--2--2--2--2--2--2-

Сообщение Twixik» 15 авг 2019, 19:10

начался хорошо, а потом скатился в банальный детектив.

ruslan_piskunov

Аватара пользователя
Старожил
Старожил
 

Сообщения: 996

Зарегистрирован: 05 дек 2011, 22:46

Откуда: МОСКВА

Награды: 7
За 100 сообщений (1) За 500 сообщений (1) 5 Тб отданного (1) 10 Тб отданного (1) За 1000 сказанных спасибо (1) 200 кармы (1) Халява №5 (1)
Карма: 362
-2--2-

Сообщение ruslan_piskunov» 15 авг 2019, 22:55

Опять русские во всем виноваты..... Похоже, продолжение следует.... Мне показался очень затянутым....

NIKOLA45

Аватара пользователя
Гуру
Гуру
 

Сообщения: 2113

Зарегистрирован: 25 май 2014, 17:36

Награды: 17
За 100 сообщений (1) За 500 сообщений (1) За 1000 сообщений (1) За 1500 сообщений (1) За 2000 сообщений (1) 5 Тб отданного (1) 10 Тб отданного (1) 15 Тб отданного (1) За 1000 сказанных спасибо (1) За 2000 сказанных спасибо (1) За 3000 сказанных спасибо (1) За 5000 сказанных спасибо (1) За 10000 сказанных спасибо (1) 200 кармы (1) 500 кармы (1) 1000 кармы (1) Халява №5 (1)
Карма: 1497
-2--2--2--2--2--2--2--2-

Сообщение NIKOLA45» 19 авг 2019, 18:07

Слабоватый сериальчик - это факт. :-(
Последний раз редактировалось NIKOLA45 19 авг 2019, 18:10, всего редактировалось 1 раз.

NIKOLA45

Аватара пользователя
Гуру
Гуру
 

Сообщения: 2113

Зарегистрирован: 25 май 2014, 17:36

Награды: 17
За 100 сообщений (1) За 500 сообщений (1) За 1000 сообщений (1) За 1500 сообщений (1) За 2000 сообщений (1) 5 Тб отданного (1) 10 Тб отданного (1) 15 Тб отданного (1) За 1000 сказанных спасибо (1) За 2000 сказанных спасибо (1) За 3000 сказанных спасибо (1) За 5000 сказанных спасибо (1) За 10000 сказанных спасибо (1) 200 кармы (1) 500 кармы (1) 1000 кармы (1) Халява №5 (1)
Карма: 1497
-2--2--2--2--2--2--2--2-

Сообщение NIKOLA45» 19 авг 2019, 18:08

ruslan_piskunov писал(а):

Опять русские во всем виноваты...


А то кто же ... 0-)


Вернуться в !!! Полные завершенные сезоны !!!



Кто сейчас на конференции

Сейчас этот форум просматривают: DARKSTONE, Gintas7, twin13

Ресурс не предоставляет электронные версии произведений, а занимается лишь коллекционированием и каталогизацией ссылок, присылаемых и публикуемых на форуме нашими читателями. Если вы являетесь правообладателем какого-либо представленного материала и не желаете чтобы ссылка на него находилась в нашем каталоге, свяжитесь с нами и мы незамедлительно удалим её. Файлы для обмена на трекере предоставлены пользователями сайта, и администрация не несёт ответственности за их содержание. Просьба не заливать файлы, защищенные авторскими правами, а также файлы нелегального содержания!