Тайное общество мистера Бенедикта (1 сезон: 1-8 серии из 8) / The Mysterious Benedict Society [2021, Kомедия, детектив, приключения, семейный, WEB-DL (1080p), Профессиональный (многоголосый, закадровый) - TVShows] - Скачать торрент бесплатно

Модераторы: Кандидат в Союз Риперов, Модераторы Сериалы, мультсериалы, Союз Риперов

Поделиться ВКонтакте Поделиться Facebook Поделиться Twitter Поделиться Mail.RU
АвторСообщение
VLAD71
Аватара пользователя
Тоp Releaser
Тоp Releaser
 
Раздал: 147.51 ТБ
Скачал: 40.93 ТБ
Ратио: 624.757
Сообщения: 219
Зарегистрирован: 17 дек 2017, 05:16
Награды: 11
За 100 сообщений (1) 5 Тб отданного (1) 10 Тб отданного (1) 15 Тб отданного (1) 20 Тб отданного (1) 30 Тб отданного (1) 10 Тб скаченного (1) 15 Тб скаченного (1) 20 Тб скаченного (1) 30 Тб скаченного (1) За новинки сериалов (1)

Сообщение VLAD71 » 11 июл 2021, 21:57

Тайное общество мистера Бенедикта (1 сезон: 1-8 серии из 8) / The Mysterious Benedict Society [2021, Kомедия, детектив, приключения, семейный, WEB-DL (1080p), Профессиональный (многоголосый, закадровый) - TVShows] - Скачать торрент

Название: Тайное общество мистера Бенедикта
Оригинальное название: The Mysterious Benedict Society
Год выхода: 2021
Жанр: Kомедия, детектив, приключения, семейный
Режиссер: Грег Биман, Джеймс Бобин, Шеннон Коли

В ролях:
Тони Хейл, Кристен Шаал, МаамеЯа Боафо, Райан Херст, Гия Сандху, Мистик Иншо, Сет Карр, Эмми ДеОливейра, Марта Кесслер, Саара Чодри и др.

Описание сериала:
В центре сюжета оказывается четвероклассница Хильда Лиско, следующая по стопам своего отца-журналиста Мэтью, который в погоне за сенсацией готов пойти на неоправданный риск. После того как ее семья сталкивается с финансовыми трудностями, она вместе с отцом, матерью и старшей сестрой переезжает из дорогой квартиры в Бруклине в небольшой городок на берегу озера, в дом своего дедушки. Там 9-летняя девочка выясняет, что в далеком 1988 году без вести пропал сын мэра Ричи Файф, с которым дружил ее папа, но тайна его исчезновения так и не была раскрыта, поэтому она решает провести собственное расследование...

Страна: США
Студия: 20th Television, Familystyle Film, FanFare Productions, Slavkin / Swimmer Productions, Sonar Entertainment, Walt Disney Television
Продолжительность: ~0:50:00
Перевод: Профессиональный (многоголосый, закадровый) TVShows
Субтитры: Английские



Файл
Формат: MKV
Качество: WEB-DL (1080p)

Видео: 1920x1080 (16:9), 23,976 fps, AVC (х264), High@L4, ~5781 kbps avg, 0.116 bit/pixel
Аудио RUS: 48 kHz, AC3, 3/2 (L,C,R,l,r) + LFE ch, ~448 kbps avg
Аудио ENG: 48 kHz, E-AC-3 JOC+Atmos, 3/2 (L,C,R,l,r) + LFE ch, ~768 kbps avg


Общее
Уникальный идентификатор : 242139144455199504922113807746432947683 (0xB62A4D8AF32DFB2A7B884C6C82FAD5E3)
Полное имя : The.Mysterious.Benedict.Society.S01E04.A.Whisper.Not.a.Shout.mkv
Формат : Matroska
Версия формата : Version 4
Размер файла : 2,44 Гбайт
Продолжительность : 49 м. 51 с.
Режим общего битрейта : Переменный
Общий поток : 6 999 Кбит/сек
Дата кодирования : UTC 2021-07-11 16:49:47
Программа кодирования : mkvmerge v33.1.0 ('Primrose') 64-bit
Библиотека кодирования : libebml v1.3.7 + libmatroska v1.5.0

Видео
Идентификатор : 1
Формат : AVC
Формат/Информация : Advanced Video Codec
Профиль формата : High@L4
Настройки формата : CABAC / 4 Ref Frames
Параметр CABAC формата : Да
Параметр RefFrames формата : 4 кадра
Идентификатор кодека : V_MPEG4/ISO/AVC
Продолжительность : 49 м. 51 с.
Вид битрейта : Переменный
Битрейт : 5 781 Кбит/сек
Максимальный битрейт : 12,7 Мбит/сек
Ширина : 1 920 пикселей
Высота : 1 080 пикселей
Соотношение сторон : 16:9
Режим частоты кадров : Постоянный
Частота кадров : 23,976 (24000/1001) кадра/сек
Цветовое пространство : YUV
Субдискретизация насыщенности : 4:2:0
Битовая глубина : 8 бит
Тип развёртки : Прогрессивная
Бит/(Пиксели*Кадры) : 0.116
Размер потока : 2,01 Гбайт (83%)
Язык : English
Default : Да
Forced : Нет
Цветовой диапазон : Limited
Основные цвета : BT.709
Характеристики трансфера : BT.709
Коэффициенты матрицы : BT.709

Аудио #1
Идентификатор : 2
Формат : AC-3
Формат/Информация : Audio Coding 3
Коммерческое название : Dolby Digital
Идентификатор кодека : A_AC3
Продолжительность : 49 м. 51 с.
Вид битрейта : Постоянный
Битрейт : 448 Кбит/сек
Каналы : 6 каналов
Channel layout : L R C LFE Ls Rs
Частота : 48,0 КГц
Частота кадров : 31,250 кадров/сек (1536 SPF)
Метод сжатия : С потерями
Задержка видео : 22 мс.
Размер потока : 160 Мбайт (6%)
Заголовок : MVO TVShows
Язык : Russian
Default : Да
Forced : Нет

Аудио #2
Идентификатор : 3
Формат : E-AC-3 JOC
Формат/Информация : Enhanced AC-3 with Joint Object Coding
Коммерческое название : Dolby Digital Plus with Dolby Atmos
Идентификатор кодека : A_EAC3
Продолжительность : 49 м. 51 с.
Вид битрейта : Постоянный
Битрейт : 768 Кбит/сек
Каналы : 6 каналов
Channel layout : L R C LFE Ls Rs
Частота : 48,0 КГц
Частота кадров : 31,250 кадров/сек (1536 SPF)
Метод сжатия : С потерями
Размер потока : 274 Мбайт (11%)
Заголовок : English
Язык : English
Default : Нет
Forced : Нет
Complexity index : 16
Number of dynamic objects : 15
Bed channel count : 1 канал
Bed channel configuration : LFE

Текст
Идентификатор : 4
Формат : UTF-8
Идентификатор кодека : S_TEXT/UTF8
Идентификатор кодека/Информация : UTF-8 Plain Text
Продолжительность : 48 м. 11 с.
Битрейт : 68 бит/сек
Count of elements : 749
Размер потока : 24,3 Кбайт (0%)
Заголовок : English (SDH)
Язык : English
Default : Нет
Forced : Нет

Как качать, Как раздавать - Правила и инструкции
Торрент09 авг 2021, 10:49 [ 09 авг 2021, 10:49 ]

СКАЧАТЬ с просмотром рекламы
СтатусПроверен -=Robbertta=-
.torrent скачан0 раз
Размер18.88 ГБ (20 273 156 725)

Вернуться в !!! Полные завершенные сезоны !!!



Кто сейчас на конференции

Сейчас этот форум просматривают: нет зарегистрированных пользователей

Ресурс не предоставляет электронные версии произведений, а занимается лишь коллекционированием и каталогизацией ссылок, присылаемых и публикуемых на форуме нашими читателями. Если вы являетесь правообладателем какого-либо представленного материала и не желаете чтобы ссылка на него находилась в нашем каталоге, свяжитесь с нами и мы незамедлительно удалим её. Файлы для обмена на трекере предоставлены пользователями сайта, и администрация не несёт ответственности за их содержание. Просьба не заливать файлы, защищенные авторскими правами, а также файлы нелегального содержания!