Тьма (3 сезон: 1-8 серии из 8) / Dark [2020, Триллер, драма, криминал, детектив, WEB-DLRip (1080p), Профессиональный многоголосый (HDRezka Studio)] - Скачать торрент бесплатно

Модераторы: Кандидат в Союз Риперов, Модераторы Сериалы, мультсериалы, Союз Риперов

Поделиться ВКонтакте Поделиться Facebook Поделиться Twitter Поделиться Mail.RU
АвторСообщение
VLAD71
Аватара пользователя
Пользователь
Пользователь
 
Раздал: 147.4 ТБ
Скачал: 40.78 ТБ
Ратио: 623.151
Сообщения: 94
Зарегистрирован: 17 дек 2017, 05:16

Сообщение VLAD71 » 30 июн 2020, 06:46

Тьма (3 сезон: 1-8 серии из 8) / Dark [2020, Триллер, драма, криминал, детектив, WEB-DLRip (1080p), Профессиональный многоголосый (HDRezka Studio)] - Скачать торрент

Название: Тьма
Оригинальное название: Dark
Год выхода: 2020
Жанр: триллер, фантастика, драма, криминал, детектив
Режиссер: Баран бо Одар

В ролях: Оливер Мазуччи, Каролина Эйхгорн, Йордис Трибель, Луис Хофманн, Майя Шёне, Штефан Кампвирт, Андреас Пичман, Дебора Кауфман, Татя Зайбт и др.

Описание сериала: На протяжении долгих лет человечество верило, что время само по себе линейно, однородно и бесконечно, и в этом бесконечном потоке всегда есть прошлое, настоящее и будущее. А что если это не так? Что если "вчера", "сегодня" и "завтра" – вовсе не последовательность, а созданная еще в древности иллюзия, скрывающая от нашего разума более глубокий смысл...

Действие сериала разворачивается в небольшом провинциальном городке Винден, расположенном в лесной глуши недалеко от атомной электростанции. В центре сюжета оказывается группа местных жителей, которые крайне обеспокоены бесследным исчезновением подростка и неожиданным самоубийством прилежного семьянина, произошедшим спустя несколько дней. Что же это: не связанные между собой трагические происшествия или отголоски таинственных событий, произошедших в далёком прошлом, о которых многие всё это время пытались забыть?


Страна: Германия, США
Студия: Wiedemann & Berg Television
Продолжительность: ~1:00:00
Перевод: Профессиональный (многоголосый, закадровый) HDRezka Studio
Субтитры: Russian (Netflix), German (Forced, Full, SDH) и другие



Файл
Формат: MKV
Качество: WEB-DLRip (1080p)

Видео: MPEG-4 AVC, ~ 3010 Кбит/с, 1920х1080
Аудио RUS: AC3, 2 ch, 192 Кбит/с
Аудио GER: E-AC3, 6 ch, 640 Кбит/с



бщее
Уникальный идентификатор: 756880237438311108280770026587746457 (0x91C513AB0180D28B80B3BE52E6F099)
Полное имя: Dark.S03E01.WEB-DL.1080p.HDREZKA.STUDIO.mkv
Формат: Matroska
Версия формата: Version 4
Размер файла: 1, 65 Гбайт
Продолжительность: 1 ч. 2 м.
Режим общего битрейта: Переменный
Общий поток: 3 810 Кбит/сек
Дата кодирования: UTC 2020-06-28 17:50:45
Программа кодирования: mkvmerge v48.0.0 ('Fortress Around Your Heart') 64-bit
Библиотека кодирования: libebml v1.4.0 + libmatroska v1.6.0

Видео
Идентификатор: 1
Формат: AVC
Формат/Информация: Advanced Video Codec
Профиль формата: Main@L4
Настройки формата: CABAC / 3 Ref Frames
Параметр CABAC формата: Да
Параметр RefFrames формата: 3 кадра
Идентификатор кодека: V_MPEG4/ISO/AVC
Продолжительность: 1 ч. 2 м.
Вид битрейта: Переменный
Битрейт: 3 010 Кбит/сек
Максимальный битрейт: 4 515 Кбит/сек
Ширина: 1 920 пикселей
Высота: 1 080 пикселей
Соотношение сторон: 16:9
Режим частоты кадров: Постоянный
Частота кадров: 24, 000 кадра/сек
Цветовое пространство: YUV
Субдискретизация насыщенности: 4:2:0
Битовая глубина: 8 бит
Тип развёртки: Прогрессивная
Бит/(Пиксели*Кадры): 0.060
Размер потока: 1, 29 Гбайт (78%)
Библиотека кодирования: x264 core 148 r2717 0d2410d
Настройки программы: cabac=1 / ref=3 / deblock=1:0:0 / analyse=0x1:0x111 / me=umh / subme=10 / psy=1 / psy_rd=1.00:0.00 / mixed_ref=1 / me_range=24 / chroma_me=1 / trellis=2 / 8x8dct=0 / cqm=0 / deadzone=21, 11 / fast_pskip=1 / chroma_qp_offset=-2 / threads=8 / lookahead_threads=1 / sliced_threads=0 / nr=0 / decimate=1 / interlaced=0 / bluray_compat=0 / stitchable=1 / constrained_intra=0 / bframes=2 / b_pyramid=0 / b_adapt=2 / b_bias=0 / direct=3 / weightb=1 / open_gop=0 / weightp=2 / keyint=250 / keyint_min=24 / scenecut=0 / intra_refresh=0 / rc_lookahead=48 / rc=2pass / mbtree=1 / bitrate=3010 / ratetol=1.0 / qcomp=0.50 / qpmin=6 / qpmax=51 / qpstep=4 / cplxblur=20.0 / qblur=0.5 / vbv_maxrate=4515 / vbv_bufsize=6020 / nal_hrd=vbr / filler=0 / ip_ratio=1.40 / aq=1:1.00
Default: Да
Forced: Нет

Аудио #1
Идентификатор: 2
Формат: AC-3
Формат/Информация: Audio Coding 3
Коммерческое название: Dolby Digital
Идентификатор кодека: A_AC3
Продолжительность: 1 ч. 2 м.
Вид битрейта: Постоянный
Битрейт: 192 Кбит/сек
Каналы: 2 канала
Channel layout: L R
Частота: 48, 0 КГц
Частота кадров: 31, 250 кадров/сек (1536 SPF)
Метод сжатия: С потерями
Размер потока: 85, 3 Мбайт (5%)
Заголовок: HDREZKA
Язык: Russian
Default: Да
Forced: Нет

Аудио #2
Идентификатор: 3
Формат: E-AC-3
Формат/Информация: Enhanced AC-3
Коммерческое название: Dolby Digital Plus
Идентификатор кодека: A_EAC3
Продолжительность: 1 ч. 2 м.
Вид битрейта: Постоянный
Битрейт: 640 Кбит/сек
Каналы: 6 каналов
Channel layout: L R C LFE Ls Rs
Частота: 48, 0 КГц
Частота кадров: 31, 250 кадров/сек (1536 SPF)
Метод сжатия: С потерями
Размер потока: 284 Мбайт (17%)
Заголовок: German
Язык: German
Default: Нет
Forced: Нет

Текст #1
Идентификатор: 4
Формат: UTF-8
Идентификатор кодека: S_TEXT/UTF8
Идентификатор кодека/Информация: UTF-8 Plain Text
Продолжительность: 57 м. 13 с.
Битрейт: 42 бит/сек
Count of elements: 455
Размер потока: 17, 9 Кбайт (0%)
Заголовок: Russian
Язык: Russian
Default: Да
Forced: Нет

Текст #2
Идентификатор: 5
Формат: UTF-8
Идентификатор кодека: S_TEXT/UTF8
Идентификатор кодека/Информация: UTF-8 Plain Text
Продолжительность: 1 ч. 1 м.
Битрейт: 26 бит/сек
Count of elements: 449
Размер потока: 11, 8 Кбайт (0%)
Заголовок: English
Язык: English
Default: Нет
Forced: Да

Текст #3
Идентификатор: 6
Формат: UTF-8
Идентификатор кодека: S_TEXT/UTF8
Идентификатор кодека/Информация: UTF-8 Plain Text
Продолжительность: 1 ч. 0 м.
Битрейт: 44 бит/сек
Count of elements: 456
Размер потока: 19, 8 Кбайт (0%)
Заголовок: Arabic
Язык: Arabic
Default: Нет
Forced: Нет

Текст #4
Идентификатор: 7
Формат: UTF-8
Идентификатор кодека: S_TEXT/UTF8
Идентификатор кодека/Информация: UTF-8 Plain Text
Продолжительность: 1 ч. 0 м.
Битрейт: 28 бит/сек
Count of elements: 475
Размер потока: 12, 5 Кбайт (0%)
Заголовок: Chinese Simplified
Язык: Chinese
Default: Нет
Forced: Нет

Текст #5
Идентификатор: 8
Формат: UTF-8
Идентификатор кодека: S_TEXT/UTF8
Идентификатор кодека/Информация: UTF-8 Plain Text
Продолжительность: 57 м. 12 с.
Битрейт: 29 бит/сек
Count of elements: 456
Размер потока: 12, 6 Кбайт (0%)
Заголовок: Chinese Traditional
Язык: Chinese
Default: Нет
Forced: Нет

Текст #6
Идентификатор: 9
Формат: UTF-8
Идентификатор кодека: S_TEXT/UTF8
Идентификатор кодека/Информация: UTF-8 Plain Text
Продолжительность: 57 м. 13 с.
Битрейт: 25 бит/сек
Count of elements: 451
Размер потока: 10, 9 Кбайт (0%)
Заголовок: Czech
Язык: Czech
Default: Нет
Forced: Нет

Текст #7
Идентификатор: 10
Формат: UTF-8
Идентификатор кодека: S_TEXT/UTF8
Идентификатор кодека/Информация: UTF-8 Plain Text
Продолжительность: 57 м. 18 с.
Битрейт: 27 бит/сек
Count of elements: 416
Размер потока: 11, 5 Кбайт (0%)
Заголовок: Danish
Язык: Danish
Default: Нет
Forced: Нет

Текст #8
Идентификатор: 11
Формат: UTF-8
Идентификатор кодека: S_TEXT/UTF8
Идентификатор кодека/Информация: UTF-8 Plain Text
Продолжительность: 57 м. 19 с.
Битрейт: 26 бит/сек
Count of elements: 404
Размер потока: 11, 1 Кбайт (0%)
Заголовок: Dutch
Язык: Dutch
Default: Нет
Forced: Нет

Текст #9
Идентификатор: 12
Формат: UTF-8
Идентификатор кодека: S_TEXT/UTF8
Идентификатор кодека/Информация: UTF-8 Plain Text
Продолжительность: 1 ч. 1 м.
Битрейт: 24 бит/сек
Count of elements: 419
Размер потока: 11, 0 Кбайт (0%)
Заголовок: Finnish
Язык: Finnish
Default: Нет
Forced: Нет

Текст #10
Идентификатор: 13
Формат: UTF-8
Идентификатор кодека: S_TEXT/UTF8
Идентификатор кодека/Информация: UTF-8 Plain Text
Продолжительность: 57 м. 12 с.
Битрейт: 27 бит/сек
Count of elements: 420
Размер потока: 11, 6 Кбайт (0%)
Заголовок: French
Язык: French
Default: Нет
Forced: Нет

Текст #11
Идентификатор: 14
Формат: UTF-8
Идентификатор кодека: S_TEXT/UTF8
Идентификатор кодека/Информация: UTF-8 Plain Text
Продолжительность: 57 м. 1 с.
Битрейт: 51 бит/сек
Count of elements: 568
Размер потока: 21, 6 Кбайт (0%)
Заголовок: German
Язык: German
Default: Нет
Forced: Нет

Текст #12
Идентификатор: 15
Формат: UTF-8
Идентификатор кодека: S_TEXT/UTF8
Идентификатор кодека/Информация: UTF-8 Plain Text
Продолжительность: 57 м. 13 с.
Битрейт: 45 бит/сек
Count of elements: 457
Размер потока: 19, 0 Кбайт (0%)
Заголовок: Greek
Язык: Greek
Default: Нет
Forced: Нет

Текст #13
Идентификатор: 16
Формат: UTF-8
Идентификатор кодека: S_TEXT/UTF8
Идентификатор кодека/Информация: UTF-8 Plain Text
Продолжительность: 57 м. 15 с.
Битрейт: 44 бит/сек
Count of elements: 456
Размер потока: 18, 7 Кбайт (0%)
Заголовок: Hebrew
Язык: Hebrew
Default: Нет
Forced: Нет

Текст #14
Идентификатор: 17
Формат: UTF-8
Идентификатор кодека: S_TEXT/UTF8
Идентификатор кодека/Информация: UTF-8 Plain Text
Продолжительность: 1 ч. 0 м.
Битрейт: 24 бит/сек
Count of elements: 450
Размер потока: 11, 1 Кбайт (0%)
Заголовок: Hungarian
Язык: Hungarian
Default: Нет
Forced: Нет

Текст #15
Идентификатор: 18
Формат: UTF-8
Идентификатор кодека: S_TEXT/UTF8
Идентификатор кодека/Информация: UTF-8 Plain Text
Продолжительность: 1 ч. 1 м.
Битрейт: 24 бит/сек
Count of elements: 451
Размер потока: 11, 1 Кбайт (0%)
Заголовок: Indonesian
Язык: Indonesian
Default: Нет
Forced: Нет

Текст #16
Идентификатор: 19
Формат: UTF-8
Идентификатор кодека: S_TEXT/UTF8
Идентификатор кодека/Информация: UTF-8 Plain Text
Продолжительность: 1 ч. 0 м.
Битрейт: 25 бит/сек
Count of elements: 441
Размер потока: 11, 2 Кбайт (0%)
Заголовок: Italian
Язык: Italian
Default: Нет
Forced: Нет

Текст #17
Идентификатор: 20
Формат: UTF-8
Идентификатор кодека: S_TEXT/UTF8
Идентификатор кодека/Информация: UTF-8 Plain Text
Продолжительность: 1 ч. 1 м.
Битрейт: 26 бит/сек
Count of elements: 434
Размер потока: 11, 8 Кбайт (0%)
Заголовок: Japanese
Язык: Japanese
Default: Нет
Forced: Нет

Текст #18
Идентификатор: 21
Формат: UTF-8
Идентификатор кодека: S_TEXT/UTF8
Идентификатор кодека/Информация: UTF-8 Plain Text
Продолжительность: 57 м. 12 с.
Битрейт: 34 бит/сек
Count of elements: 453
Размер потока: 14, 5 Кбайт (0%)
Заголовок: Korean
Язык: Korean
Default: Нет
Forced: Нет

Текст #19
Идентификатор: 22
Формат: UTF-8
Идентификатор кодека: S_TEXT/UTF8
Идентификатор кодека/Информация: UTF-8 Plain Text
Продолжительность: 57 м. 18 с.
Битрейт: 27 бит/сек
Count of elements: 405
Размер потока: 11, 5 Кбайт (0%)
Заголовок: Norwegian Bokmal
Язык: Norwegian Bokmal
Default: Нет
Forced: Нет

Текст #20
Идентификатор: 23
Формат: UTF-8
Идентификатор кодека: S_TEXT/UTF8
Идентификатор кодека/Информация: UTF-8 Plain Text
Продолжительность: 1 ч. 1 м.
Битрейт: 23 бит/сек
Count of elements: 426
Размер потока: 10, 5 Кбайт (0%)
Заголовок: Polish
Язык: Polish
Default: Нет
Forced: Нет

Текст #21
Идентификатор: 24
Формат: UTF-8
Идентификатор кодека: S_TEXT/UTF8
Идентификатор кодека/Информация: UTF-8 Plain Text
Продолжительность: 57 м. 12 с.
Битрейт: 28 бит/сек
Count of elements: 449
Размер потока: 11, 8 Кбайт (0%)
Заголовок: Portuguese
Язык: Portuguese
Default: Нет
Forced: Нет

Текст #22
Идентификатор: 25
Формат: UTF-8
Идентификатор кодека: S_TEXT/UTF8
Идентификатор кодека/Информация: UTF-8 Plain Text
Продолжительность: 1 ч. 0 м.
Битрейт: 25 бит/сек
Count of elements: 452
Размер потока: 11, 4 Кбайт (0%)
Заголовок: Brazilian Portuguese
Язык: Portuguese
Default: Нет
Forced: Нет

Текст #23
Идентификатор: 26
Формат: UTF-8
Идентификатор кодека: S_TEXT/UTF8
Идентификатор кодека/Информация: UTF-8 Plain Text
Продолжительность: 1 ч. 1 м.
Битрейт: 29 бит/сек
Count of elements: 440
Размер потока: 13, 0 Кбайт (0%)
Заголовок: Romanian
Язык: Romanian
Default: Нет
Forced: Нет

Текст #24
Идентификатор: 27
Формат: UTF-8
Идентификатор кодека: S_TEXT/UTF8
Идентификатор кодека/Информация: UTF-8 Plain Text
Продолжительность: 1 ч. 0 м.
Битрейт: 25 бит/сек
Count of elements: 456
Размер потока: 11, 4 Кбайт (0%)
Заголовок: Spanish
Язык: Spanish
Default: Нет
Forced: Нет

Текст #25
Идентификатор: 28
Формат: UTF-8
Идентификатор кодека: S_TEXT/UTF8
Идентификатор кодека/Информация: UTF-8 Plain Text
Продолжительность: 57 м. 13 с.
Битрейт: 28 бит/сек
Count of elements: 452
Размер потока: 12, 0 Кбайт (0%)
Заголовок: European Spanish
Язык: Spanish
Default: Нет
Forced: Нет

Текст #26
Идентификатор: 29
Формат: UTF-8
Идентификатор кодека: S_TEXT/UTF8
Идентификатор кодека/Информация: UTF-8 Plain Text
Продолжительность: 57 м. 18 с.
Битрейт: 27 бит/сек
Count of elements: 423
Размер потока: 11, 5 Кбайт (0%)
Заголовок: Swedish
Язык: Swedish
Default: Нет
Forced: Нет

Текст #27
Идентификатор: 30
Формат: UTF-8
Идентификатор кодека: S_TEXT/UTF8
Идентификатор кодека/Информация: UTF-8 Plain Text
Продолжительность: 1 ч. 1 м.
Битрейт: 64 бит/сек
Count of elements: 456
Размер потока: 28, 9 Кбайт (0%)
Заголовок: Thai
Язык: Thai
Default: Нет
Forced: Нет

Текст #28
Идентификатор: 31
Формат: UTF-8
Идентификатор кодека: S_TEXT/UTF8
Идентификатор кодека/Информация: UTF-8 Plain Text
Продолжительность: 1 ч. 0 м.
Битрейт: 27 бит/сек
Count of elements: 452
Размер потока: 12, 2 Кбайт (0%)
Заголовок: Turkish
Язык: Turkish
Default: Нет
Forced: Нет

Текст #29
Идентификатор: 32
Формат: UTF-8
Идентификатор кодека: S_TEXT/UTF8
Идентификатор кодека/Информация: UTF-8 Plain Text
Продолжительность: 57 м. 12 с.
Битрейт: 38 бит/сек
Count of elements: 449
Размер потока: 16, 2 Кбайт (0%)
Заголовок: Vietnamese
Язык: Vietnamese
Default: Нет
Forced: Нет
Как качать, Как раздавать - Правила и инструкции
Торрент30 июн 2020, 10:37 [ 30 июн 2020, 10:37 ]

СКАЧАТЬ с просмотром рекламы
Статус-
.torrent скачан103 раз
Размер15.83 ГБ (16 997 410 498)

VLAD71

Аватара пользователя
Пользователь
Пользователь
 

Сообщения: 94

Зарегистрирован: 17 дек 2017, 05:16


Сообщение VLAD71» 08 июл 2020, 08:43

Держите Русские (форсированные) субтитры для этого релиза: ссылка


Вернуться в !!! Полные завершенные сезоны !!!



Кто сейчас на конференции

Сейчас этот форум просматривают: android49, Google [Bot], pto57582

Ресурс не предоставляет электронные версии произведений, а занимается лишь коллекционированием и каталогизацией ссылок, присылаемых и публикуемых на форуме нашими читателями. Если вы являетесь правообладателем какого-либо представленного материала и не желаете чтобы ссылка на него находилась в нашем каталоге, свяжитесь с нами и мы незамедлительно удалим её. Файлы для обмена на трекере предоставлены пользователями сайта, и администрация не несёт ответственности за их содержание. Просьба не заливать файлы, защищенные авторскими правами, а также файлы нелегального содержания!