Три девушки (1 сезон: 1-3 серии из 3) / Three Girls [2017, Драма, криминал, WEBRip (1080p), Профессиональный (многоголосый, закадровый) - BaibaKo] - Скачать торрент бесплатно

Модераторы: Кандидат в Союз Риперов, Модераторы Сериалы, мультсериалы, Союз Риперов

Поделиться ВКонтакте Поделиться Facebook Поделиться Twitter Поделиться Mail.RU
АвторСообщение
VLAD71
Аватара пользователя
Пользователь
Пользователь
 
Раздал: 147.4 ТБ
Скачал: 40.77 ТБ
Ратио: 623.151
Сообщения: 84
Зарегистрирован: 17 дек 2017, 05:16
Карма: 48

Сообщение VLAD71 » 11 сен 2019, 12:46

Три девушки (1 сезон: 1-3 серии из 3) / Three Girls [2017, Драма, криминал, WEBRip (1080p), Профессиональный (многоголосый, закадровый) - BaibaKo] - Скачать торрент

Название: Три девушки
Оригинальное название: Three Girls
Год выхода: 2017
Жанр: драма, криминал
Режиссер: Филиппа Лоуторп

В ролях: Молли Уиндсор, Риа Змитрович, Лив Хилл, Пол Кэй, Руперт Проктер, Антонио Аакил, Росс Андерсон, Джилл Халфпенни, Васим Закир и др.

Описание сериала: История о трех девушках-подростках, которые подверглись насилию и были захвачены в сексуальное рабство британскими пакистанцами.

Страна: Великобритания
Производство: BBC Studios, Studio Lambert
Продолжительность: ~01:00:00
Перевод: Профессиональный многоголосый - BaibaKo
Субтитры: Отсутствуют





Файл
Формат: MKV
Качество: WEBRip (1080р)

Видео: MPEG-4 AVC, ~ 5000 Кбит/с, 1920x1080
Аудио RUS: AC3, 2 ch, 384 Кбит/с
Аудио ENG: Е-AC3, 2 ch, 224 Кбит/с



Общее
Уникальный идентификатор: 155268021244528396363460907901432772143 (0x74CF887CA7418369560E5DA6855E362F)
Полное имя: Three.Girls.s01e01.HD1080p.WEBRip.Rus.Eng.BaibaKo.tv.mkv
Формат: Matroska
Версия формата: Version 4
Размер файла: 2,25 Гбайт
Продолжительность: 59 м. 45 с.
Общий поток: 5387 Кбит/сек
Дата кодирования: UTC 2019-09-11 03:48:13
Программа кодирования: mkvmerge v30.1.0 ('Forever And More') 64-bit
Библиотека кодирования: libebml v1.3.6 + libmatroska v1.4.9

Видео
Идентификатор: 1
Формат: AVC
Формат/Информация: Advanced Video Codec
Профиль формата: High@L4
Настройки формата: CABAC / 4 Ref Frames
Параметр CABAC формата: Да
Параметр RefFrames формата: 4 кадра
Идентификатор кодека: V_MPEG4/ISO/AVC
Продолжительность: 59 м. 45 с.
Битрейт: 4777 Кбит/сек
Ширина: 1920 пикселей
Высота: 1080 пикселей
Соотношение сторон: 16:9
Режим частоты кадров: Постоянный
Частота кадров: 25,000 кадров/сек
Цветовое пространство: YUV
Субдискретизация насыщенности: 4:2:0
Битовая глубина: 8 бит
Тип развёртки: Прогрессивная
Бит/(Пиксели*Кадры): 0.092
Размер потока: 1,99 Гбайт (89%)
Default: Да
Forced: Нет
Цветовой диапазон: Limited
Основные цвета: BT.709
Характеристики трансфера: BT.709
Коэффициенты матрицы: BT.709

Аудио #1
Идентификатор: 2
Формат: AC-3
Формат/Информация: Audio Coding 3
Коммерческое название: Dolby Digital
Идентификатор кодека: A_AC3
Продолжительность: 59 м. 45 с.
Вид битрейта: Постоянный
Битрейт: 384 Кбит/сек
Каналы: 2 канала
ChannelLayout: L R
Частота: 48,0 КГц
Частота кадров: 31,250 кадров/сек (1536 SPF)
Битовая глубина: 16 бит
Метод сжатия: С потерями
Размер потока: 164 Мбайт (7%)
Язык: Russian
Default: Да
Forced: Нет

Аудио #2
Идентификатор: 3
Формат: E-AC-3
Формат/Информация: Enhanced AC-3
Коммерческое название: Dolby Digital Plus
Идентификатор кодека: A_EAC3
Продолжительность: 59 м. 45 с.
Вид битрейта: Постоянный
Битрейт: 224 Кбит/сек
Каналы: 2 канала
ChannelLayout: L R
Частота: 48,0 КГц
Частота кадров: 31,250 кадров/сек (1536 SPF)
Метод сжатия: С потерями
Размер потока: 95,7 Мбайт (4%)
Язык: English
Default: Нет
Forced: Нет
Как качать, Как раздавать - Правила и инструкции
Торрент11 сен 2019, 12:46 [ 11 сен 2019, 12:46 ]

СКАЧАТЬ с просмотром рекламы
СтатусПроверен
.torrent скачан1210 раз
Размер6.12 ГБ (6 574 515 624)

vidsos


Пользователь
Пользователь
  Предупреждений: 1

Сообщения: 56

Зарегистрирован: 01 янв 2018, 19:14

Предупреждения: 1

Карма: 7

Сообщение vidsos» 11 сен 2019, 17:10

походу это девушки захватили пакистанцев в рабство,там пробы ставить уже некуда


Вернуться в !!! Полные завершенные сезоны !!!



Кто сейчас на конференции

Сейчас этот форум просматривают: нет зарегистрированных пользователей

Ресурс не предоставляет электронные версии произведений, а занимается лишь коллекционированием и каталогизацией ссылок, присылаемых и публикуемых на форуме нашими читателями. Если вы являетесь правообладателем какого-либо представленного материала и не желаете чтобы ссылка на него находилась в нашем каталоге, свяжитесь с нами и мы незамедлительно удалим её. Файлы для обмена на трекере предоставлены пользователями сайта, и администрация не несёт ответственности за их содержание. Просьба не заливать файлы, защищенные авторскими правами, а также файлы нелегального содержания!