Восточный Нью-Йорк (1 сезон: 1-11 серии из 12) / East New York [2022, Драма, криминал, WEB-DL (1080p), Профессиональный (многоголосый, закадровый) - TVShows] - Скачать торрент бесплатно

Модераторы: Кандидат в Союз Риперов, Модераторы Сериалы, мультсериалы, Союз Риперов

Поделиться ВКонтакте Поделиться Facebook Поделиться Twitter Поделиться Mail.RU
АвторСообщение
VLAD71
Аватара пользователя
Модератор Фильмов
Модератор Фильмов
 
Раздал: 147.51 ТБ
Скачал: 40.94 ТБ
Ратио: 624.756
Сообщения: 295
Стаж: 5 лет 1 месяц 20 дней
Награды: 11

Сообщение VLAD71 » 21 ноя 2022, 19:06

Восточный Нью-Йорк (1 сезон: 1-11 серии из 12) / East New York [2022, Драма, криминал, WEB-DL (1080p), Профессиональный (многоголосый, закадровый) - TVShows] - Скачать торрент

Название: Восточный Нью-Йорк
Оригинальное название: East New York
Год выхода: 2022
Жанр: Драма, криминал
Режиссер: Майкл М. Робин

В ролях:
Аманда Уоррен, Кевин Ранкин, Ричард Кайнд, Элизабет Родригес, Оливия Луккарди, Рубен Сантьяго-Хадсон, Джимми Смитс, К.С. Ли, Дэриен Силлс-Эванс и др.

Описание сериала:
Сериал *Восточный Нью-Йорк* рассказывает о буднях офицеров и детективов, которые следят за порядком на окраине Бруклина. Их жизнь полна опасностей и ежедневной напряженной работой.

Страна: США
Студия: Clothesline Productions, Grounded Mind, Warner Bros. Television
Продолжительность: ~0:45:00
Перевод: Профессиональный (многоголосый, закадровый) TVShows
Субтитры: Английские



Файл
Формат: MKV
Качество: WEB-DL (1080p)

Видео: 1920x1080 (16:9), 24 fps, AVC (х264), High@L4, ~10 Mbps avg, 0.201 bit/pixel
Аудио RUS: 48 kHz, AC3, 2/0 (L,R), ~384 kbps avg
Аудио ENG: 48 kHz, E-AC3, 3/2 (L,C,R,l,r) + LFE ch, ~640 kbps avg




Общее
Уникальный идентификатор : 69310219457894994289646453247546365008 (0x3424A9A766E65BEF47ADDC4B3F0A1450)
Полное имя : East.New.York.2022.S01E01.WEB-DL.1080p.AMZN.TVShows.mkv
Формат : Matroska
Версия формата : Version 4
Размер файла : 3,22 Гбайт
Продолжительность : 43 м. 34 с.
Общий поток : 10,6 Мбит/сек
Дата кодирования : UTC 2022-11-21 11:18:59
Программа кодирования : mkvmerge v68.0.0 ('The Curtain') 64-bit
Библиотека кодирования : libebml v1.4.2 + libmatroska v1.6.4

Видео
Идентификатор : 1
Формат : AVC
Формат/Информация : Advanced Video Codec
Профиль формата : High@L4
Настройки формата : CABAC / 4 Ref Frames
Параметр CABAC формата : Да
Параметр RefFrames формата : 4 кадра
Идентификатор кодека : V_MPEG4/ISO/AVC
Продолжительность : 43 м. 34 с.
Вид битрейта : Постоянный
Битрейт : 10 000 Кбит/сек
Ширина : 1 920 пикселей
Высота : 1 080 пикселей
Соотношение сторон : 16:9
Режим частоты кадров : Постоянный
Частота кадров : 24,000 кадра/сек
Цветовое пространство : YUV
Субдискретизация насыщенности : 4:2:0
Битовая глубина : 8 бит
Тип развёртки : Прогрессивная
Бит/(Пиксели*Кадры) : 0.201
Размер потока : 2,91 Гбайт (90%)
Default : Да
Forced : Нет
Цветовой диапазон : Limited
Основные цвета : BT.709
Характеристики трансфера : BT.709
Коэффициенты матрицы : BT.709

Аудио #1
Идентификатор : 2
Формат : AC-3
Формат/Информация : Audio Coding 3
Коммерческое название : Dolby Digital
Идентификатор кодека : A_AC3
Продолжительность : 43 м. 34 с.
Вид битрейта : Постоянный
Битрейт : 384 Кбит/сек
Каналы : 2 канала
Channel layout : L R
Частота : 48,0 КГц
Частота кадров : 31,250 кадров/сек (1536 SPF)
Метод сжатия : С потерями
Размер потока : 120 Мбайт (4%)
Язык : Russian
Default : Да
Forced : Нет

Аудио #2
Идентификатор : 3
Формат : E-AC-3
Формат/Информация : Enhanced AC-3
Коммерческое название : Dolby Digital Plus
Идентификатор кодека : A_EAC3
Продолжительность : 43 м. 34 с.
Вид битрейта : Постоянный
Битрейт : 640 Кбит/сек
Каналы : 6 каналов
Channel layout : L R C LFE Ls Rs
Частота : 48,0 КГц
Частота кадров : 31,250 кадров/сек (1536 SPF)
Метод сжатия : С потерями
Размер потока : 199 Мбайт (6%)
Язык : English
Default : Нет
Forced : Нет

Текст #1
Идентификатор : 4
Формат : UTF-8
Идентификатор кодека : S_TEXT/UTF8
Идентификатор кодека/Информация : UTF-8 Plain Text
Продолжительность : 43 м. 13 с.
Битрейт : 98 бит/сек
Частота кадров : 0,367 кадр/сек
Count of elements : 953
Размер потока : 31,1 Кбайт (0%)
Язык : English
Default : Нет
Forced : Нет

Текст #2
Идентификатор : 5
Формат : UTF-8
Идентификатор кодека : S_TEXT/UTF8
Идентификатор кодека/Информация : UTF-8 Plain Text
Продолжительность : 43 м. 13 с.
Битрейт : 102 бит/сек
Частота кадров : 0,386 кадр/сек
Count of elements : 1001
Размер потока : 32,5 Кбайт (0%)
Заголовок : SDH
Язык : English
Default : Нет
Forced : Нет

Как качать, Как раздавать - Правила и инструкции
Торрент18 янв 2023, 18:37 [ 18 янв 2023, 18:37 ]

СКАЧАТЬ с просмотром рекламы
Статус-
.torrent скачан0 раз
Размер31.83 ГБ (34 173 345 515)

Вернуться в !!! Полные завершенные сезоны !!!

Кто сейчас на конференции

Сейчас этот форум просматривают: zabava

Ресурс не предоставляет электронные версии произведений, а занимается лишь коллекционированием и каталогизацией ссылок, присылаемых и публикуемых на форуме нашими читателями. Если вы являетесь правообладателем какого-либо представленного материала и не желаете чтобы ссылка на него находилась в нашем каталоге, свяжитесь с нами и мы незамедлительно удалим её. Файлы для обмена на трекере предоставлены пользователями сайта, и администрация не несёт ответственности за их содержание. Просьба не заливать файлы, защищенные авторскими правами, а также файлы нелегального содержания!