Код Гиас: Лелуш Воскресший / Code Geass: Fukkatsu no Lelouch [2020, аниме, мультфильм, боевик, драма, фантастика, фэнтези, WEB-DLRip | iTunes] - Скачать торрент бесплатно

Полнометражные Аниме и все что с ним связано, вы можете скачать торрент -файлом в этом разделе.

Модераторы: Модераторы Сериалы, мультсериалы, Союз Риперов

Полнометражные Аниме и все что с ним связано, вы можете скачать торрент -файлом в этом разделе.
Поделиться ВКонтакте Поделиться Facebook Поделиться Twitter Поделиться Mail.RU
АвторСообщение
katodojechka
Аватара пользователя
Меценат
Меценат
 
Раздал: 17.13 ТБ
Скачал: 4.58 ТБ
Ратио: 48.575
Сообщения: 24
Зарегистрирован: 13 янв 2010, 02:25
Откуда: Россия
Награды: 12
За 100 сообщений (1) 5 Тб отданного (1) 10 Тб отданного (1) 15 Тб отданного (1) За новинки Softa (1) За 1000 сказанных спасибо (1) За 2000 сказанных спасибо (1) За 3000 сказанных спасибо (1) За 5000 сказанных спасибо (1) За 2000 полученных спасибо (1) За вступление в группу VK (1) Халява №1 (1)

Сообщение katodojechka » 07 июл 2020, 22:30

Код Гиас: Лелуш Воскресший / Code Geass: Fukkatsu no Lelouch [2020, аниме, мультфильм, боевик, драма, фантастика, фэнтези, WEB-DLRip | iTunes] - Скачать торрент

Название: Код Гиас: Лелуш Воскресший
Оригинальное название: Code Geass: Fukkatsu no Lelouch
Год выхода: 2019
Жанр: аниме, мультфильм, боевик, драма, фантастика, фэнтези

Режиссер: Горо Танигути
В ролях: Юкана Ногами, Такахиро Сакурай, Дзюн Фукуяма, Каори Надзука, Ватару Такаги, Юко Гото, Акио Оцука, Кикуко Иноуэ, Аюму Мурасэ, Симадзаки Нобунага
Роли дублировали: Александра Остроухова, Сергей Анненков, Сергей Пономарёв, Ева Финкельштейн, Александр Груздев

Описание: В альтернативной реальности Британская Империя захватила мир, обрушив на непокорных мощь своей военной машины. Новая глава саги о Лелуше, опальном отпрыске императорского рода и великом революционере, который поставил целью своей жизни разрушить Британскую Империю. Благодаря встрече с таинственной зеленоволосой девушкой, Лелуш получил магический дар, так называемый Гиас, позволяющий подчинять себе волю других людей. Он достиг своей цели... и погиб. Однако его история на этом не закончилась.



Релиз от:

Страна: Япония
Студия: Sunrise Inc.
Продолжительность: 01:52:47
Перевод: Дублированный | iTunes

Файл
Формат: AVI
Качество: WEB-DLRip
Источник: |Code.Geass.Fukkatsu.no.Lelouch.2019.720p.WEB-DL.Rus.TeamHD|
Видео: 704x400 (1.76:1), 24.000 fps, XviD build 73 ~1465 kbps avg, 0.22 bit/pixel
Звук: 48 kHz, AC3 Dolby Digital, 3/2 (L,C,R,l,r) + LFE ch, ~384.00 kbps avg
Субтитры: Нет
Сэмпл

General
Complete name : F:\Code.Geass.Fukkatsu.no.Lelouch.2019.WEB-DLRip.OlLanDGroup.avi
Format : AVI
Format/Info : Audio Video Interleave
File size : 1.46 GiB
Duration : 1 h 52 min
Overall bit rate : 1 859 kb/s
Writing application : VirtualDubMod 1.5.10.3 | http://www.virtualdub-fr.org || (build 2550/release)
Writing library : VirtualDubMod build 2550/release

Video
ID : 0
Format : MPEG-4 Visual
Format profile : Advanced Simple@L5
Format settings : BVOP1
Format settings, BVOP : 1
Format settings, QPel : No
Format settings, GMC : No warppoints
Format settings, Matrix : Default (MPEG)
Codec ID : XVID
Codec ID/Hint : XviD
Duration : 1 h 52 min
Bit rate : 1 465 kb/s
Width : 704 pixels
Height : 400 pixels
Display aspect ratio : 16:9
Frame rate : 24.000 FPS
Color space : YUV
Chroma subsampling : 4:2:0
Bit depth : 8 bits
Scan type : Progressive
Compression mode : Lossy
Bits/(Pixel*Frame) : 0.217
Stream size : 1.15 GiB (79%)
Writing library : XviD 73

Audio
ID : 1
Format : AC-3
Format/Info : Audio Coding 3
Commercial name : Dolby Digital
Codec ID : 2000
Duration : 1 h 52 min
Bit rate mode : Constant
Bit rate : 384 kb/s
Channel(s) : 6 channels
Channel layout : L R C LFE Ls Rs
Sampling rate : 48.0 kHz
Frame rate : 31.250 FPS (1536 SPF)
Compression mode : Lossy
Stream size : 310 MiB (21%)
Alignment : Split across interleaves
Interleave, duration : 42 ms (1.00 video frame)
Interleave, preload duratio : 500 ms
Service kind : Complete Main
Как качать, Как раздавать - Правила и инструкции
Торрент07 июл 2020, 22:30 [ 07 июл 2020, 22:30 ]

СКАЧАТЬ с просмотром рекламы
СтатусПроверен -=Robbertta=-
.torrent скачан43 раз
Размер1.46 ГБ (1 572 382 720)

Вернуться в Полнометражные Аниме

Кто сейчас на конференции

Сейчас этот форум просматривают: нет зарегистрированных пользователей

Ресурс не предоставляет электронные версии произведений, а занимается лишь коллекционированием и каталогизацией ссылок, присылаемых и публикуемых на форуме нашими читателями. Если вы являетесь правообладателем какого-либо представленного материала и не желаете чтобы ссылка на него находилась в нашем каталоге, свяжитесь с нами и мы незамедлительно удалим её. Файлы для обмена на трекере предоставлены пользователями сайта, и администрация не несёт ответственности за их содержание. Просьба не заливать файлы, защищенные авторскими правами, а также файлы нелегального содержания!