Возвращение [2003, драма, BDRip 1080р] - Скачать торрент бесплатно

Модераторы: Модераторы Фильмы, мультфильмы, Союз Риперов

Поделиться ВКонтакте Поделиться Facebook Поделиться Twitter Поделиться Mail.RU
АвторСообщение
Download more
Аватара пользователя
Модератор Фильмов
Модератор Фильмов
 
Раздал: 88.23 ТБ
Скачал: 28.92 ТБ
Ратио: 934.658
Сообщения: 1331
Зарегистрирован: 19 ноя 2016, 16:36
Откуда: г.Нур-Султан | Рипер | HD видео-энкодер: Есмуханов Данияр Исламбекович | daniyar.esmuhanov
Награды: 29
За 100 сообщений (1) За 500 сообщений (1) За 1000 сообщений (1) 5 Тб отданного (1) 10 Тб отданного (1) 15 Тб отданного (1) 20 Тб отданного (1) 30 Тб отданного (1) 10 Тб скаченного (1) 15 Тб скаченного (1) 20 Тб скаченного (1) 250 релизов (1) 500 релизов (1) За новинки фильмов (1) За новинки Softa (1) За новинки музыки (1) За 2000 полученных спасибо (1) За 4000 полученных спасибо (1) За 8000 полученных спасибо (1) За 10000 полученных спасибо (1) 30 рипов (1) 50 рипов (1) 100 рипов (1) За вступление в группу VK (1) За вступление в Telegram (1) 200 кармы (1) 500 кармы (1) 1000 кармы (1) Халява №3 (1)

Сообщение Download more » 22 май 2020, 19:16

Возвращение [2003, драма, BDRip 1080р] - Скачать торрент

Название: Возвращение
Год выхода: 2003
Жанр: драма
Режиссер: Андрей Звягинцев
В ролях: Константин Лавроненко, Владимир Гарин, Иван Добронравов, Наталия Вдовина, Елизавета Александрова, Лазарь Дубовик, Любовь Казакова, Галина Попова, Алексей Сукновалов, Андрей Сумин

О фильме: «Возвраще́ние» — художественный кинофильм, первая режиссёрская работа Андрея Звягинцева. Главные роли исполнили Константин Лавроненко, Иван Добронравов и Владимир Гарин (погибший за два месяца до премьеры картины). Удостоен главного приза Венецианского кинофестиваля «Золотой лев», а также национальных наград «Ника» и «Золотой орёл» как лучший фильм года.

В жизни двух братьев неожиданно возникает отец, знакомый им только по фотографии десятилетней давности. Появление странного и чужого для них человека переворачивает жизнь мальчиков, когда отец вырывает ребят из привычной жизни в тихом родном городе и привозит на заброшенный остров.



Выпущено: Россия
Продолжительность: 01:50:17
Озвучивание: не требуется
Субтитры: нет

Rip by Есмуханов Данияр Исламбекович | daniyar.esmuhanov

Файл
Формат: MKV
Качество: BDRip 1080р
Видео:1920x1024, 24,000 кадра/сек, ~5250 Кбит/сек
Аудио:48,0 КГц, AC3, 2 ch, 192 kbps
Общее
Уникальный идентификатор : 209566990495547916911687890473018952887 (0x9DA9225D3A69DACBA54BDBA1F5078CB7)
Полное имя : C:\Users\Данияр\Desktop\Данияр\µTorrent Раздача\Возвращение.daniyar.esmuhanov\Возвращение (драма) 2003.mkv
Формат : Matroska
Версия формата : Version 4
Размер файла : 1,88 Гбайт
Продолжительность : 1 ч. 50 м.
Общий поток : 2 442 Кбит/сек
Название фильма : Исходник: Blu-ray Disc | Автор рипа: Есмуханов Данияр Исламбекович | daniyar.esmuhanov
Дата кодирования : UTC 2020-05-22 15:38:23
Программа кодирования : mkvmerge v8.3.0 ('Over the Horizon') 64bit
Библиотека кодирования : libebml v1.3.1 + libmatroska v1.4.2

Видео
Идентификатор : 1
Формат : AVC
Формат/Информация : Advanced Video Codec
Профиль формата : High@L4.1
Настройки формата : CABAC / 4 Ref Frames
Параметр CABAC формата : Да
Параметр RefFrames формата : 4 кадра
Идентификатор кодека : V_MPEG4/ISO/AVC
Продолжительность : 1 ч. 50 м.
Битрейт : Переменный битрейт: 62,5 Мбит/сек | 2250 Кбит/сек | 5250 Кбит/сек
Ширина : 1 920 пикселей
Высота : 1 024 пикселя
Соотношение сторон : 1,85:1
Режим частоты кадров : Постоянный
Частота кадров : 24,000 кадра/сек
Цветовое пространство : YUV
Субдискретизация насыщенности : 4:2:0
Битовая глубина : 8 бит
Тип развёртки : Прогрессивная
Бит/(Пиксели*Кадры) : 0.048
Размер потока : 1,73 Гбайт (92%)
Заголовок : Исходник: Blu-ray Disc | Автор рипа: Есмуханов Данияр Исламбекович | daniyar.esmuhanov
Библиотека кодирования : x264 core 158
Настройки программы : cabac=1 / ref=4 / deblock=1:-1:-1 / analyse=0x3:0x133 / me=umh / subme=9 / psy=1 / psy_rd=1.00:0.15 / mixed_ref=1 / me_range=24 / chroma_me=1 / trellis=2 / 8x8dct=1 / cqm=0 / deadzone=21,11 / fast_pskip=0 / chroma_qp_offset=-3 / threads=12 / lookahead_threads=1 / sliced_threads=0 / nr=0 / decimate=1 / interlaced=0 / bluray_compat=0 / constrained_intra=0 / bframes=3 / b_pyramid=2 / b_adapt=2 / b_bias=0 / direct=3 / weightb=1 / open_gop=0 / weightp=2 / keyint=250 / keyint_min=23 / scenecut=40 / intra_refresh=0 / rc_lookahead=60 / rc=2pass / mbtree=1 / bitrate=2250 / ratetol=1.0 / qcomp=0.60 / qpmin=0 / qpmax=69 / qpstep=4 / cplxblur=20.0 / qblur=0.5 / vbv_maxrate=31250 / vbv_bufsize=31250 / nal_hrd=none / filler=0 / ip_ratio=1.40 / aq=1:1.00
Язык : Russian
Default : Да
Forced : Да

Аудио
Идентификатор : 2
Формат : AC-3
Формат/Информация : Audio Coding 3
Коммерческое название : Dolby Digital
Идентификатор кодека : A_AC3
Продолжительность : 1 ч. 50 м.
Вид битрейта : Постоянный
Битрейт : 192 Кбит/сек
Каналы : 2 канала
Channel layout : L R
Частота : 48,0 КГц
Частота кадров : 31,250 кадров/сек (1536 SPF)
Метод сжатия : С потерями
Размер потока : 151 Мбайт (8%)
Язык : Russian
Service kind : Complete Main
Default : Да
Forced : Да
Как качать, Как раздавать - Правила и инструкции
Торрент22 май 2020, 19:16 [ 22 май 2020, 19:16 ]

СКАЧАТЬ с просмотром рекламы
СтатусПроверен
.torrent скачан784 раз
Размер1.88 ГБ (2 019 806 130)
Раздаю один раз о возвращение не стоит просить и за моей маленькой скорости раздачи.
Если будут все качать и тут-же уходить, то у кого вы-то будете потом качать? Я Помог Вам, И Вы помогите другому скачать.



Download more

Аватара пользователя
Модератор Фильмов
Модератор Фильмов
 

Сообщения: 1331

Зарегистрирован: 19 ноя 2016, 16:36

Откуда: г.Нур-Султан | Рипер | HD видео-энкодер: Есмуханов Данияр Исламбекович | daniyar.esmuhanov

Награды: 29
За 100 сообщений (1) За 500 сообщений (1) За 1000 сообщений (1) 5 Тб отданного (1) 10 Тб отданного (1) 15 Тб отданного (1) 20 Тб отданного (1) 30 Тб отданного (1) 10 Тб скаченного (1) 15 Тб скаченного (1) 20 Тб скаченного (1) 250 релизов (1) 500 релизов (1) За новинки фильмов (1) За новинки Softa (1) За новинки музыки (1) За 2000 полученных спасибо (1) За 4000 полученных спасибо (1) За 8000 полученных спасибо (1) За 10000 полученных спасибо (1) 30 рипов (1) 50 рипов (1) 100 рипов (1) За вступление в группу VK (1) За вступление в Telegram (1) 200 кармы (1) 500 кармы (1) 1000 кармы (1) Халява №3 (1)

Сообщение Download more» 22 май 2020, 21:15

phpBB [media]
Раздаю один раз о возвращение не стоит просить и за моей маленькой скорости раздачи.
Если будут все качать и тут-же уходить, то у кого вы-то будете потом качать? Я Помог Вам, И Вы помогите другому скачать.



Download more

Аватара пользователя
Модератор Фильмов
Модератор Фильмов
 

Сообщения: 1331

Зарегистрирован: 19 ноя 2016, 16:36

Откуда: г.Нур-Султан | Рипер | HD видео-энкодер: Есмуханов Данияр Исламбекович | daniyar.esmuhanov

Награды: 29
За 100 сообщений (1) За 500 сообщений (1) За 1000 сообщений (1) 5 Тб отданного (1) 10 Тб отданного (1) 15 Тб отданного (1) 20 Тб отданного (1) 30 Тб отданного (1) 10 Тб скаченного (1) 15 Тб скаченного (1) 20 Тб скаченного (1) 250 релизов (1) 500 релизов (1) За новинки фильмов (1) За новинки Softa (1) За новинки музыки (1) За 2000 полученных спасибо (1) За 4000 полученных спасибо (1) За 8000 полученных спасибо (1) За 10000 полученных спасибо (1) 30 рипов (1) 50 рипов (1) 100 рипов (1) За вступление в группу VK (1) За вступление в Telegram (1) 200 кармы (1) 500 кармы (1) 1000 кармы (1) Халява №3 (1)

Сообщение Download more» 22 май 2020, 22:16

phpBB [media]
Раздаю один раз о возвращение не стоит просить и за моей маленькой скорости раздачи.
Если будут все качать и тут-же уходить, то у кого вы-то будете потом качать? Я Помог Вам, И Вы помогите другому скачать.




Вернуться в Российские фильмы



Кто сейчас на конференции

Сейчас этот форум просматривают: нет зарегистрированных пользователей

Ресурс не предоставляет электронные версии произведений, а занимается лишь коллекционированием и каталогизацией ссылок, присылаемых и публикуемых на форуме нашими читателями. Если вы являетесь правообладателем какого-либо представленного материала и не желаете чтобы ссылка на него находилась в нашем каталоге, свяжитесь с нами и мы незамедлительно удалим её. Файлы для обмена на трекере предоставлены пользователями сайта, и администрация не несёт ответственности за их содержание. Просьба не заливать файлы, защищенные авторскими правами, а также файлы нелегального содержания!