Ворошиловский стрелок [1999, Драма, DVDRip] - Скачать торрент бесплатно

Модераторы: Модераторы Фильмы, мультфильмы, Союз Риперов

Поделиться ВКонтакте Поделиться Facebook Поделиться Twitter Поделиться Mail.RU
АвторСообщение
ligfaerd

Пользователь
Пользователь
 
Раздал: 4.67 ТБ
Скачал: 4.29 ТБ
Ратио: 1.684
Сообщения: 85
Зарегистрирован: 23 авг 2015, 17:59
Откуда: Россия
Карма: 40

Сообщение ligfaerd » 28 мар 2016, 22:16

Ворошиловский стрелок [1999, Драма, DVDRip] - Скачать торрент

Название: Ворошиловский стрелок

Дата выхода: 1999
Страна: Россия
Кинокомпания: Мост-Синематограф
Жанр: Драма
Продолжительность: 01:34:40
Режиссёр: Станислав Говорухин
В ролях: Михаил Ульянов, Анна Синякина, Александр Пороховщиков, Сергей Гармаш, Ирина Розанова, Марат Башаров, Алексей Макаров, Илья Древнов, Владислав Галкин
Описание: Пенсионер, железнодорожник в отставке, скромно живёт со своей внучкой Катей. В соседнем доме постоянно собираются трое молодых бездельников, чувствующие себя хозяевами жизни. Однажды они хитростью заманили Катю к себе, где изнасиловали.

Поначалу насильников арестовывают, однако, отец одного из них — большой милицейский начальник — освобождает их. После безуспешных попыток наказать преступников законным путём Иван Фёдорович посчитал своим долгом восстановить справедливость сам…
Дополнительно: Фильм снят по мотивам повести Виктора Пронина «Женщина по средам» (другое название «Будет немножко больно», также издавалась под названием «Ворошиловский стрелок», 1995).
Релиз группа: RiperAM ->
Качество: DVDRip
Формат файла: AVI
Видео кодек: DivX
Аудио кодек: AC3
Видео: XviD, 720x528 (4:3), 1749 kbps, 25 fps, 0,184 bpp
Аудио: AC3; 48.0 KHz; 448 Kbps; CBR; 6 ch
MediaInfo: General
Complete name : \Voroshilovskiy_strelok_(1999).DVDRip.XviD.ac3-All.Films-RG.avi
Format : AVI
Format/Info : Audio Video Interleave
File size : 1.46 GiB
Duration : 1h 34mn
Overall bit rate : 2 207 Kbps
Movie name : Ворошиловский стрелок (1999) DVDRip [All.Films][RG]
Director : <VIRUS> [rutracker.org]
Writing application : VirtualDubMod 1.5.10.3 | www.virtualdub-fr.org || (build 2550/release)

Video
ID : 0
Format : MPEG-4 Visual
Format profile : Advanced Simple@L5
Format settings, BVOP : 2
Format settings, QPel : No
Format settings, GMC : No warppoints
Format settings, Matrix : Custom
Codec ID : XVID
Codec ID/Hint : XviD
Duration : 1h 34mn
Bit rate : 1 749 Kbps
Width : 720 pixels
Height : 528 pixels
Display aspect ratio : 4:3
Frame rate : 25.000 fps
Color space : YUV
Chroma subsampling : 4:2:0
Bit depth : 8 bits
Scan type : Progressive
Compression mode : Lossy
Bits/(Pixel*Frame) : 0.184
Stream size : 1.16 GiB (79%)
Writing library : XviD 73

Audio
ID : 1
Format : AC-3
Format/Info : Audio Coding 3
Mode extension : CM (complete main)
Codec ID : 2000
Duration : 1h 34mn
Bit rate mode : Constant
Bit rate : 448 Kbps
Channel(s) : 6 channels
Channel positions : Front: L C R, Side: L R, LFE
Sampling rate : 48.0 KHz
Bit depth : 16 bits
Compression mode : Lossy
Stream size : 303 MiB (20%)
Alignment : Split accross interleaves
Interleave, duration : 40 ms (1.00 video frame)
Interleave, preload duration : 500 ms




Как качать, Как раздавать - Правила и инструкции
Торрент14 июн 2018, 18:09 [ 14 июн 2018, 18:09 ]

СКАЧАТЬ с просмотром рекламы
Статус-
.torrent скачан0 раз
Размер1.46 ГБ (1 564 506 112)
Black Metal Terrorist

Wagon


Мастер
Мастер
 

Сообщения: 400

Зарегистрирован: 31 май 2015, 07:39

Карма: 1093
-2--2--2--2--2--2-

Сообщение Wagon» 29 мар 2016, 07:32

отличный фильм *круто

SCORPION-sv

Аватара пользователя
Старожил
Старожил
 

Сообщения: 1144

Зарегистрирован: 10 дек 2013, 07:24

Награды: 13
За 100 сообщений (1) За 500 сообщений (1) За 1000 сообщений (1) 5 Тб отданного (1) 10 Тб отданного (1) 15 Тб отданного (1) За 1000 сказанных спасибо (1) За 2000 сказанных спасибо (1) За 3000 сказанных спасибо (1) За 5000 сказанных спасибо (1) За 10000 сказанных спасибо (1) 200 кармы (1) Халява №1 (1)
Карма: 451
-2--2--2-

Сообщение SCORPION-sv» 14 июн 2018, 18:13

Wagon писал(а):

отличный фильм *круто

Согласен, фильм обалденный!

Breecher

Аватара пользователя
Старожил
Старожил
 

Сообщения: 2373

Зарегистрирован: 07 окт 2012, 12:45

Откуда: Россия

Награды: 13
За 100 сообщений (1) За 500 сообщений (1) За 1000 сообщений (1) За 1500 сообщений (1) За 2000 сообщений (1) 5 Тб отданного (1) 10 Тб отданного (1) За 1000 сказанных спасибо (1) За 2000 сказанных спасибо (1) 200 кармы (1) 500 кармы (1) 1000 кармы (1) Халява №5 (1)
Карма: 6276
-2--2--2--2--2--2--2--2--2--2-

Сообщение Breecher» 14 июн 2018, 18:17

SCORPION-sv писал(а):

Wagon писал(а):

отличный фильм *круто

Согласен, фильм обалденный!

Только его уже по ящику раз 100 за год показывали.

Bleena

Аватара пользователя
Красавица Riper.AM
Красавица Riper.AM
 

Сообщения: 413

Зарегистрирован: 29 ноя 2015, 13:39

Откуда: из города в России

Награды: 5
За 100 сообщений (1) 200 кармы (1) 500 кармы (1) 1000 кармы (1) Халява №3 (1)
Карма: 3483
-2--2--2--2--2--2--2--2--2--2-

Сообщение Bleena» 14 июн 2018, 18:47

очень жалко, что режиссёр этого фильма Станислав Говорухин сегодня ушёл от нас навсегда,такой талантливый был :-(

Master Chief

Аватара пользователя
Завсегдатай
Завсегдатай
 

Сообщения: 1127

Зарегистрирован: 23 июл 2017, 19:20

Откуда: Российская Империя!!!✌ ツ ✌

Награды: 10
За 100 сообщений (1) За 500 сообщений (1) За 1000 сообщений (1) 5 Тб отданного (1) За 1000 сказанных спасибо (1) За 2000 сказанных спасибо (1) 200 кармы (1) 500 кармы (1) 1000 кармы (1) Халява №5 (1)
Карма: 1327
-2--2--2--2--2--2--2-

Сообщение Master Chief» 14 июн 2018, 19:00

отличное кино!!! светлая память Говорухину *роза *роза
Где Россия,там победа!И так будет всегда!Нельзя победить того- кто не сдается! ✌ ツ ✌ Мы за ДНР и ЛНР!!!!

chesspage


Пользователь
Пользователь
  Предупреждений: 1

Сообщения: 79

Зарегистрирован: 03 мар 2011, 17:35

Предупреждения: 1

Карма: 20

Сообщение chesspage» 14 июн 2018, 19:37

... это ты заикаешься, а я интересуюсь.


Вернуться в Российские фильмы



Кто сейчас на конференции

Сейчас этот форум просматривают: нет зарегистрированных пользователей

Ресурс не предоставляет электронные версии произведений, а занимается лишь коллекционированием и каталогизацией ссылок, присылаемых и публикуемых на форуме нашими читателями. Если вы являетесь правообладателем какого-либо представленного материала и не желаете чтобы ссылка на него находилась в нашем каталоге, свяжитесь с нами и мы незамедлительно удалим её. Файлы для обмена на трекере предоставлены пользователями сайта, и администрация не несёт ответственности за их содержание. Просьба не заливать файлы, защищенные авторскими правами, а также файлы нелегального содержания!