Маша и медведь / (Серия 70) / [2009 - 2018, Мультсериал, Анимация, Детский, Семейный, BDRip, WEB-DLRip] - Скачать торрент бесплатно

Модераторы: Кандидат в Союз Риперов, Модераторы Сериалы, мультсериалы, Союз Риперов

Поделиться ВКонтакте Поделиться Facebook Поделиться Twitter Поделиться Mail.RU
АвторСообщение
uh25
Аватара пользователя
Новичок
Новичок
 
Раздал: 6.17 ТБ
Скачал: 18.81 ГБ
Ратио: 336.848
Сообщения: 13
Зарегистрирован: 27 май 2015, 16:17
Карма: 24

Сообщение uh25 » 03 сен 2015, 18:49

Маша и медведь / (Серия 70) / [2009 - 2018, Мультсериал, Анимация, Детский, Семейный, BDRip, WEB-DLRip] - Скачать торрент

Название: Маша и медведь

Дата выхода: 2009 - 2018
Страна: Россия
Студия: Россия, Студия "Анимаккорд"
Жанр: Мультсериал, Анимация, Детский, Семейный
Серии: 70
Продолжительность: 00:05:22 - 00:07:59
Роли озвучивали: Алина Кукушкина, Варвара Саранцева, Э.Назаров, Б.Кутневич, М.Кутневич, М.Дёмина, В.Дроздов, О.Кузнецов, Анжелика Кими, Катя Кутневич, Элси Фишер, Ребекка Блум, Изабель Ф. Кифе, Лука Тесеи.
Режиссёр: Олег Ужинов, Денис Червяцов, Марина Нефедова, Олег Кузовков, Георгий Орлов, Андрей Беляев, Наталья Мальгина.
Описание:
Мультсериал про девочку Машу, которая никому не дает покоя, и в первую очередь — своему другу Медведю.
Сериал рассчитан в первую очередь на детскую аудиторию от 3 до 9 лет. Тем не менее мультфильм семейный,
интересный для всех возрастов, взрослые тоже могут посмеяться над приключениями Маши и Медведя
Дополнительно:
+ Песенка друзей.
В 1-26; 33; 40; 43; 47; 51; 54; 63 сериях, есть Английские зв. дорожки.
В 2-4; 6; 7; 10; 11; 17; 21; 40 сериях, есть Итальянские зв. дорожки.
В 16-ой серии, Китайская зв.дорожа.
#2 Audio RUS / DTS / 48kHz / 5.1 / 2048 kbps.
#3 Audio RUS / AC3 / Stereo / 48kHz / 2.0 / 384 kbps.
#4 Audio RUS / AC3 / Mono / 48kHz /1.0 / 256 kbps.
#5 Audio ENG.ITA.CHI. / 48 kHz / AC3 / 5.1 / 448 kbps.
БЕЗ НАЧАЛЬНОЙ ЗАСТАВКИ.
# Субтитры: Русские, Белорусские, Английские.
Сэмпл: http://radikal.ru/video/fXQc6bkS1Zb
Качество: BDRip, WEB-DLRip
Формат файла: MKV
Видео кодек: x264
Аудио кодек: AC3
Видео: x264. 1280x720. 23,976-25fps 1880-2222 kbps
Аудио: #1 Russian / AC3 / 48kHz / 5.1 / 640 kbps.
MediaInfo: Unique ID : 175536378949314533862455533410648519141 (0x840F13ACC13A637BB7A2C1215CDEF1E5)
Complete name : D:\МАША И МЕДВЕДЬ. 1-96\Маша и медведь.(Masha and the Bear.) 2009-2018 BDRip.~WEB-DLRip.AVC.x264.720p.AC3.DTS.(4xRUS.).mkv
Format : Matroska
Format version : Version 1
File size : 163 MiB
Duration : 6mn 29s - 7mn 59s
Overall bit rate : 3337 - 3791 Kbps Kbps
Movie name : Маша и медведь.(Masha and the Bear.) 2009-2018 BDRip~WEB-DLRip..AVC.x264.720p.AC3.DTS,
Encoded date : UTC 2015-07-27 17:20:05
Writing application : mkvmerge v2.1.0 ('Another Place To Fall') built on Aug 19 2007 13:40:07
Writing library : libebml v0.7.7 + libmatroska v0.8.1
TITLE : Маша и медведь.(Masha and the Bear.) 2009-2016 BDRip~WEB-DLRip..AVC.x264.720p.AC3.
COPYRIGHT : Release by Luber (Uhtomka)
COMMENT : The original file: Masha and the Bear.Carefully repair! 2009-2015 Blu-Ray disk & Blu-Ray Remux [1080p]
DURATION : 00:06:39.630000000
NUMBER_OF_FRAMES : 56
NUMBER_OF_BYTES : 1639
_STATISTICS_WRITING_APP : mkvmerge v7.7.0 ('Six Voices') 64bit built on Feb 28 2015 23:39:33
_STATISTICS_WRITING_DATE_UTC : 2015-04-18 07:17:13
_STATISTICS_TAGS : BPS DURATION NUMBER_OF_FRAMES NUMBER_OF_BYTES

Video
ID : 1
Format : AVC
Format/Info : Advanced Video Codec
Format profile : High@L5.1
Format settings, CABAC : Yes
Format settings, ReFrames : 3 frames
Codec ID : V_MPEG4/ISO/AVC
Duration : 6mn 48s
Bit rate mode : Constant
Bit rate : 1880-2084 Kbps
Nominal bit rate : 2222 Kbps / 2222 Kbps
Width : 1280 pixels
Height : 720 pixels
Display aspect ratio : 16:9
Frame rate mode : Constant
Frame rate : 23,976-25.000 fps
Standard : NTSC
Color space : YUV
Chroma subsampling : 4:2:0
Bit depth : 8 bits
Scan type : Progressive
Bits/(Pixel*Frame) : 0.091
Stream size : 97.5 MiB (60%)
Title : #1 Video RUS. Masha and the Bear. 2009-2018 BDRip, x264, 720p, MPEG-4 AVC, 1280x720, 23.976-25 fps, 2 pass CBR (constant bitrate), 1880-2222 kb/s. (Release by Luber (Uhtomka)
Writing library : x264 core 114
Encoding settings : cabac=1 / ref=3 / deblock=1:0:0 / analyse=0x3:0x113 / me=hex / subme=7 / psy=1 / psy_rd=1.00:0.00 / mixed_ref=1 / me_range=16 / chroma_me=1 / trellis=1 / 8x8dct=1 / cqm=2 /
deadzone=21,11 / fast_pskip=1 / chroma_qp_offset=-2 / threads=6 / sliced_threads=0 / slices=1 / nr=0 / decimate=1 / interlaced=0 / constrained_intra=0 / bframes=3 / b_pyramid=0 /
b_adapt=1 / b_bias=0 / direct=1 / weightb=1 / open_gop=0 / weightp=2 / keyint=250 / keyint_min=24 / scenecut=40 / intra_refresh=0 / rc_lookahead=40 / rc=cbr / mbtree=1 /
bitrate=2222 / ratetol=1.0 / qcomp=0.60 / qpmin=3 / qpmax=69 / qpstep=4 / vbv_maxrate=2222 / vbv_bufsize=2211 / nal_hrd=cbr / ip_ratio=1.40 / aq=1:1.00
Language : Russian
Default : Yes
Forced : No
Color range : Limited
Color primaries : BT.709
Transfer characteristics : BT.709
Matrix coefficients : BT.709

Audio #1
ID : 2
Format : AC-3
Format/Info : Audio Coding 3
Mode extension : CM (complete main)
Format settings, Endianness : Big
Codec ID : A_AC3
Duration : 6mn 48s
Bit rate mode : Constant
Bit rate : 640 Kbps
Channel(s) : 6 channels
Channel positions : Front: L C R, Side: L R, LFE
Sampling rate : 48.0 KHz
Compression mode : Lossy
Stream size : 31.1 MiB (19%)
Title : #1 Audio RUS. Dolby Digital, 48 kHz, AC3, 6 ch, Surround, 640 kbps.
Language : Russian
Default : Yes
Forced : No

Audio #2
ID : 3
Format : AC-3
Format/Info : Audio Coding 3
Mode extension : CM (complete main)
Format settings, Endianness : Big
Codec ID : A_AC3
Duration : 6mn 48s
Bit rate mode : Constant
Bit rate : 384 Kbps
Channel(s) : 2 channels
Channel positions : Front: L R
Sampling rate : 48.0 KHz
Compression mode : Lossy
Stream size : 18.7 MiB (11%)
Title : #2 Audio RUS. Dolby Digital, 48 kHz, AC3, 2 ch, Stereo, 384 kbps.
Language : Russian
Default : No
Forced : No

Audio #3
ID : 4
Format : AC-3
Format/Info : Audio Coding 3
Mode extension : CM (complete main)
Format settings, Endianness : Big
Codec ID : A_AC3
Duration : 6mn 48s
Bit rate mode : Constant
Bit rate : 256 Kbps
Channel(s) : 1 channel
Channel positions : Front: C
Sampling rate : 48.0 KHz
Compression mode : Lossy
Stream size : 12.5 MiB (8%)
Title : #3 Audio RUS. Dolby Digital, 48 kHz, AC3, 1 ch, Mono, 256 kbps.
Language : Russian
Default : No
Forced : No

Text #1
ID : 5
Format : UTF-8
Codec ID : S_TEXT/UTF8
Codec ID/Info : UTF-8 Plain Text
Title : #1 Subtitles RUS.Full.SDH Colored. (Субтитры Русские, полные, цветные, цветные. (Product of Luber (Uhtomka)
Language : Russian
Default : Yes
Forced : No

Text #2
ID : 6
Format : UTF-8
Codec ID : S_TEXT/UTF8
Codec ID/Info : UTF-8 Plain Text
Title : #2 Subtitles RUS.Full. (Субтитры Русские, полные. (Product of Luber (Uhtomka)
Language : Russian
Default : No
Forced : No

Text #3
ID : 7
Format : UTF-8
Codec ID : S_TEXT/UTF8
Codec ID/Info : UTF-8 Plain Text
Title : #3 Subtitles BEL.Full. (Субтытры Беларускія, поўныя.)
Language : Belarusian
Default : No
Forced : No

Text #4
ID : 8
Format : UTF-8
Codec ID : S_TEXT/UTF8
Codec ID/Info : UTF-8 Plain Text
Title : #4 Subtitles ENG. (Субтитры Английские.)
Default : No
Forced : No

Text #5
ID : 9
Format : UTF-8
Codec ID : S_TEXT/UTF8
Codec ID/Info : UTF-8 Plain Text
Title : #5 Subtitles ukr.Full. (Субтитри українські, повні.)
Language : Ukrainian
Default : No
Forced : No

Последний раз редактировалось uh25 16 апр 2018, 16:10, всего редактировалось 40 раз(а).
Как качать, Как раздавать - Правила и инструкции
Торрент16 апр 2018, 16:10 [ 16 апр 2018, 16:10 ]

СКАЧАТЬ с просмотром рекламы
Статус-
.torrent скачан2 раз
Размер18.81 ГБ (20 194 684 008)

Serguny


Мастер
Мастер
 

Сообщения: 462

Зарегистрирован: 02 дек 2013, 12:01

Откуда: Краснодар. Russia

Награды: 4
За 100 сообщений (1) 200 кармы (1) 500 кармы (1) 1000 кармы (1)
Карма: 1285
-2--2--2--2--2--2--2-

Сообщение Serguny» 04 сен 2015, 09:30

Огромное спасибо!!!!!!!!! *да

RE3VER


Мастер
Мастер
  Предупреждений: 1

Сообщения: 351

Зарегистрирован: 29 авг 2015, 13:15

Откуда: РОССИЯ Челябинская обл. Копейск

Награды: 3
За 100 сообщений (1) 200 кармы (1) 500 кармы (1)

Предупреждения: 1

Карма: 663
-2--2--2--2-

Сообщение RE3VER» 01 дек 2015, 19:31

дети очень рады *круто
...и помни,никакой агрессии-бей и улыбайся

Сангрия


Новичок
Новичок
 

Сообщения: 8

Зарегистрирован: 23 ноя 2015, 12:21

Откуда: Россия Липецк

Карма: 20

Сообщение Сангрия» 23 янв 2016, 10:12

попробовать,скачать такую массу...реально!? *хз

Vovan366

Аватара пользователя
Модератор Фильмов
Модератор Фильмов
 

Сообщения: 284

Зарегистрирован: 30 май 2014, 18:20

Откуда: СССР

Награды: 3
За 100 сообщений (1) За 2000 полученных спасибо (1) За 4000 полученных спасибо (1)
Карма: 179
-1-

Сообщение Vovan366» 23 апр 2016, 12:41

Сангрия писал(а):

попробовать,скачать такую массу...реально!? *хз

Да при наличии шустрого интернета и места на диске, то реально. Выкладывают целые коллекции собранные годами и вес подходит к Терабайту.

Fedor1130


Новичок
Новичок
 

Сообщения: 43

Зарегистрирован: 17 мар 2013, 07:19

Карма: 2

Сообщение Fedor1130» 23 апр 2016, 15:05

А что с раздачей?

lebarock


Старейшина
Старейшина
 

Сообщения: 1590

Зарегистрирован: 13 апр 2016, 18:39

Награды: 8
За 100 сообщений (1) За 500 сообщений (1) За 1000 сообщений (1) За 1500 сообщений (1) 200 кармы (1) 500 кармы (1) 1000 кармы (1) Халява №1 (1)
Карма: 2003
-2--2--2--2--2--2--2--2--2--2-

Сообщение lebarock» 09 апр 2017, 14:44

Serguny писал(а):

Огромное спасибо!!!!!!!!! *да

поддерживаю *да

ALEX08

Аватара пользователя
Эксперт
Эксперт
 

Сообщения: 743

Зарегистрирован: 14 авг 2017, 22:11

Откуда: СССР

Награды: 5
За 100 сообщений (1) За 500 сообщений (1) 200 кармы (1) 500 кармы (1) Халява №5 (1)
Карма: 895
-2--2--2--2--2-

Сообщение ALEX08» 02 сен 2017, 19:07

Спасибо!Забираю 66_ю серию (про гольф).

uh25

Аватара пользователя
Новичок
Новичок
 

Сообщения: 13

Зарегистрирован: 27 май 2015, 16:17

Карма: 24

Сообщение uh25» 02 сен 2017, 22:52

да пожалуйсте ;-)

Andrek2000


Новичок
Новичок
 

Сообщения: 14

Зарегистрирован: 17 апр 2010, 19:04

Карма: -1

Сообщение Andrek2000» 01 дек 2017, 14:09

[quote="Сангрия"]попробовать,скачать такую массу...реально!? *хз[/quote]
Нет ничего нереального))) У меня "Машина" серия занимает 35 ГБ. Там, правда, еще и "Машины сказки" имеются


Вернуться в Русские мультсериалы



Кто сейчас на конференции

Сейчас этот форум просматривают: нет зарегистрированных пользователей

Ресурс не предоставляет электронные версии произведений, а занимается лишь коллекционированием и каталогизацией ссылок, присылаемых и публикуемых на форуме нашими читателями. Если вы являетесь правообладателем какого-либо представленного материала и не желаете чтобы ссылка на него находилась в нашем каталоге, свяжитесь с нами и мы незамедлительно удалим её. Файлы для обмена на трекере предоставлены пользователями сайта, и администрация не несёт ответственности за их содержание. Просьба не заливать файлы, защищенные авторскими правами, а также файлы нелегального содержания!