Живет такой парень [1964, Комедия, Мелодрама, HDTVRip 720p] - Скачать торрент бесплатно

Модераторы: Модераторы Фильмы, мультфильмы, Союз Риперов

Поделиться ВКонтакте Поделиться Facebook Поделиться Twitter Поделиться Mail.RU
АвторСообщение
andrejpushkaryov
Созерцатель
Созерцатель
 
Сообщения: 3
Зарегистрирован: 16 май 2016, 06:26
Карма: 0

Сообщение andrejpushkaryov » 19 ноя 2016, 13:41

Живет такой парень [1964, Комедия, Мелодрама, HDTVRip 720p] - Скачать торрент

Название: Живет такой парень

Дата выхода: 1964
Страна: СССР / Киностудия им. М. Горького
Жанр: Комедия, Мелодрама
Продолжительность: 01:34:54
Режиссёр: Василий Шукшин
В ролях: Леонид Куравлев, Лидия Чащина, Лариса Буркова, Ренита Григорьева, Нина Сазонова, Анастасия Зуева, Белла Ахмадулина, Борис Балакин, Родион Нахапетов, Виктор Филиппов, Иван Рыжов
Описание: В общем-то он обыкновенный парень — шофер Пашка Колокольников. Живет себе, работает, мечтает, встречается и расстается с самыми разными людьми. Но есть у него особая черта: он чувствует себя счастливым, только если вокруг всем хорошо. Собственная жизнь волнует его меньше, чем судьбы других людей. Ради них он и дурачком прикинется, и подвиг совершит…

Качество: HDTVRip 720p
Формат файла: MKV
Видео кодек: x264
Аудио кодек: AC3
Видео: 3000 Кбит/сек, 976*720 (4:3), в 25,000 кадров/сек, AVC (High@L4) (CABAC / 8 Ref Frames)
Аудио: 384 Кбит/сек, 48,0 КГц, 16 бит, 6 каналов, AC-3
MediaInfo: Общее
Уникальный идентификатор : 335180572912381817500693930881895594913 (0xFC296E229002BF407BE658D66AFF7BA1)
Полное имя : E:\Живёт такой парень (1964) [HDTVRip 720p].mkv
Формат : Matroska
Версия формата : Version 4 / Version 2
Размер файла : 2,25 Гбайт
Продолжительность : 1 ч. 34 м.
Общий поток : 3387 Кбит/сек
Название фильма : Живёт такой парень (1964)
Кодирование произвёл : andrejpushkaryov
Описание : Мелодрама, Комедия
Программа кодирования : Lavf56.40.101
Библиотека кодирования : Lavf56.40.101 / Lavf56.40.101

Видео
Идентификатор : 1
Формат : AVC
Формат/Информация : Advanced Video Codec
Профиль формата : High@L4
Параметр CABAC формата : Да
Параметр ReFrames формата : 8 кадров
Идентификатор кодека : V_MPEG4/ISO/AVC
Продолжительность : 1 ч. 34 м.
Битрейт : 3000 Кбит/сек
Ширина : 976 пикселей
Высота : 720 пикселей
Соотношение сторон : 4:3
Режим частоты кадров : Постоянный
Частота кадров : 25,000 кадров/сек
Цветовое пространство : YUV
Субдискретизация насыщенности : 4:2:0
Битовая глубина : 8 бит
Тип развёртки : Прогрессивная
Бит/(Пиксели*Кадры) : 0.171
Размер потока : 1,95 Гбайт (87%)
Библиотека кодирования : x264 core 148 r2643 5c65704
Настройки программы : cabac=1 / ref=8 / deblock=1:0:0 / analyse=0x3:0x133 / me=umh / subme=9 / psy=1 / psy_rd=1.00:0.00 / mixed_ref=1 / me_range=16 / chroma_me=1 / trellis=2 / 8x8dct=1 / cqm=0 / deadzone=21,11 / fast_pskip=1 / chroma_qp_offset=-2 / threads=6 / lookahead_threads=1 / sliced_threads=0 / nr=0 / decimate=1 / interlaced=0 / bluray_compat=0 / constrained_intra=0 / bframes=3 / b_pyramid=2 / b_adapt=2 / b_bias=0 / direct=3 / weightb=1 / open_gop=0 / weightp=2 / keyint=250 / keyint_min=25 / scenecut=40 / intra_refresh=0 / rc_lookahead=60 / rc=2pass / mbtree=1 / bitrate=3000 / ratetol=1.0 / qcomp=0.60 / qpmin=0 / qpmax=69 / qpstep=4 / cplxblur=20.0 / qblur=0.5 / ip_ratio=1.40 / aq=1:1.00
Default : Да
Forced : Нет
DURATION : 01:34:54.560000000

Аудио
Идентификатор : 2
Формат : AC-3
Формат/Информация : Audio Coding 3
Расширение режима : CM (complete main)
Параметр Endianness формата : Big
Идентификатор кодека : A_AC3
Продолжительность : 1 ч. 34 м.
Вид битрейта : Постоянный
Битрейт : 384 Кбит/сек
Каналы : 6 каналов
Расположение каналов : Front: L C R, Side: L R, LFE
Частота : 48,0 КГц
Частота кадров : 31,250 кадров/сек (1536 spf)
Битовая глубина : 16 бит
Метод сжатия : С потерями
Задержка видео : 104 мс.
Размер потока : 261 Мбайт (11%)
Библиотека кодирования : Lavc56.60.100 ac3_fixed
Язык : Russian
Default : Да
Forced : Нет
DURATION : 01:34:54.584000000

Как качать, Как раздавать - Правила и инструкции
Торрент19 ноя 2016, 13:36 [ 19 ноя 2016, 13:36 ]

СКАЧАТЬ с просмотром рекламы
СтатусПроверен Vadim
.torrent скачан86 раз
Размер2.25 ГБ (2 410 956 500)

Вернуться в Советские фильмы



Кто сейчас на конференции

Сейчас этот форум просматривают: нет зарегистрированных пользователей

Ресурс не предоставляет электронные версии произведений, а занимается лишь коллекционированием и каталогизацией ссылок, присылаемых и публикуемых на форуме нашими читателями. Если вы являетесь правообладателем какого-либо представленного материала и не желаете чтобы ссылка на него находилась в нашем каталоге, свяжитесь с нами и мы незамедлительно удалим её. Файлы для обмена на трекере предоставлены пользователями сайта, и администрация не несёт ответственности за их содержание. Просьба не заливать файлы, защищенные авторскими правами, а также файлы нелегального содержания!