Сказка о царе Салтане [1966, Сказка, Семейный, Детский, WEB-DLRip] - Скачать торрент бесплатно

Модераторы: Модераторы Фильмы, мультфильмы, Союз Риперов

Поделиться ВКонтакте Поделиться Facebook Поделиться Twitter Поделиться Mail.RU
АвторСообщение
Breecher
Аватара пользователя
Супермодератор
Супермодератор
 
Раздал: 120.8 ТБ
Скачал: 3.86 ТБ
Ратио: 452.750
Сообщения: 5781
Зарегистрирован: 07 окт 2012, 14:45
Откуда: Россия
Награды: 30
За 100 сообщений (1) За 500 сообщений (1) За 1000 сообщений (1) За 1500 сообщений (1) За 2000 сообщений (1) За 3000 сообщений (1) 5 Тб отданного (1) 10 Тб отданного (1) 15 Тб отданного (1) 20 Тб отданного (1) 30 Тб отданного (1) 250 релизов (1) 500 релизов (1) За 1000 сказанных спасибо (1) За 2000 сказанных спасибо (1) За 3000 сказанных спасибо (1) За 5000 сказанных спасибо (1) За 10000 сказанных спасибо (1) За 2000 полученных спасибо (1) За 4000 полученных спасибо (1) За 8000 полученных спасибо (1) За 10000 полученных спасибо (1) За 15000 полученных спасибо (1) 30 рипов (1) 50 рипов (1) 200 кармы (1) 500 кармы (1) 1000 кармы (1) Верный пользователь (1) Халява №5 (1)

Сообщение Breecher » 05 авг 2022, 23:03

Сказка о царе Салтане [1966, Сказка, Семейный, Детский, WEB-DLRip] - Скачать торрент

Оригинальное название: Сказка о царе Салтане
Жанр: Сказка, Семейный, Детский
Год выхода: 1966
Выпущено: СССР, Мосфильм
Режиссер: Александр Птушко
В ролях: Владимир Андреев, Лариса Голубкина, Олег Видов, Ксения Рябинкина, Сергей Мартинсон, Ольга Викландт, Вера Ивлева, Нина Беляева, Виктор Колпаков, Юрий Чекулаев, Валерий Носик, Григорий Шпигель, Евгений Майхровский, Яков Беленький, Борис Битюков, Сергей Голованов, Александр Дегтярь, Артём Карапетян, Юрий Киреев, Григорий Михайлов, Михаил Орлов, Дмитрий Орловский, Гурген Тонунц, Владимир Ферапонтов...

Описание: Три девицы под окном пряли поздно вечерком... А потом много чего было: и любовь, и клевета, и предательство, и чудеса, и множество волшебных приключений, и тридцать три богатыря, и, конечно же, счастливый конец...



Формат: AVI
Качество: WEB-DLRip
Видео: Xvid, ~ 1073 Кбит/с, 704x304(2.35:1), 25 fps, 0.196 bit/pixel
Аудио: 48кГц, АС3, 2 ch, 192 Кбит/с
Продолжительность: 01:21:35
Оригинальная аудиодорожка: русский
Субтитры: нет

Релиз:
Общее
Полное имя : Сказка о царе Салтане.1966.WEB-DLRip_[New-team]_by_AVP_Studio.avi
Формат : AVI
Формат/Информация : Audio Video Interleave
Размер файла : 744 Мбайт
Продолжительность : 1 ч. 21 м.
Общий поток : 1 275 Кбит/сек
Программа кодирования : VirtualDubMod 1.5.10.3 | www.virtualdub-fr.org || (build 2550/release)
Библиотека кодирования : VirtualDubMod build 2550/release

Видео
Идентификатор : 0
Формат : MPEG-4 Visual
Профиль формата : Advanced Simple@L5
Настройки формата : BVOP1 / Custom Matrix
Параметр BVOP формата : 1
Параметр QPel формата : Нет
Параметр GMC формата : Без точки перехода
Параметр матрицы формата : Выборочная
Идентификатор кодека : XVID
Идентификатор кодека/Подсказка : XviD
Продолжительность : 1 ч. 21 м.
Битрейт : 1 073 Кбит/сек
Ширина : 720 пикселей
Высота : 304 пикселя
Соотношение сторон : 2,35:1
Частота кадров : 25,000 кадров/сек
Цветовое пространство : YUV
Субдискретизация насыщенности : 4:2:0
Битовая глубина : 8 бит
Тип развёртки : Прогрессивная
Метод сжатия : С потерями
Бит/(Пиксели*Кадры) : 0.196
Размер потока : 626 Мбайт (84%)
Библиотека кодирования : XviD 73

Аудио
Идентификатор : 1
Формат : AC-3
Формат/Информация : Audio Coding 3
Коммерческое название : Dolby Digital
Идентификатор кодека : 2000
Продолжительность : 1 ч. 21 м.
Вид битрейта : Постоянный
Битрейт : 192 Кбит/сек
Каналы : 2 канала
Channel layout : L R
Частота : 48,0 КГц
Частота кадров : 31,250 кадров/сек (1536 SPF)
Метод сжатия : С потерями
Размер потока : 112 Мбайт (15%)
Выравнивание : Разделение по промежуткам
Продолжительность промежутка : 40 мс. (1,00 видеокадр)
Время предзагрузки промежутка : 500 мс
Как качать, Как раздавать - Правила и инструкции
Торрент05 авг 2022, 23:03 [ 05 авг 2022, 23:03 ]

СКАЧАТЬ с просмотром рекламы
СтатусПроверен Breecher
.torrent скачан0 раз
Размер744.21 МБ (780 357 632)

Вернуться в Советские фильмы

Кто сейчас на конференции

Сейчас этот форум просматривают: нет зарегистрированных пользователей

Ресурс не предоставляет электронные версии произведений, а занимается лишь коллекционированием и каталогизацией ссылок, присылаемых и публикуемых на форуме нашими читателями. Если вы являетесь правообладателем какого-либо представленного материала и не желаете чтобы ссылка на него находилась в нашем каталоге, свяжитесь с нами и мы незамедлительно удалим её. Файлы для обмена на трекере предоставлены пользователями сайта, и администрация не несёт ответственности за их содержание. Просьба не заливать файлы, защищенные авторскими правами, а также файлы нелегального содержания!