Сказка о царе Салтане [1966, Сказка, Семейный, Детский, WEB-DLRip-AVC] - Скачать торрент бесплатно

Модераторы: Модераторы Фильмы, мультфильмы, Союз Риперов

Поделиться ВКонтакте Поделиться Facebook Поделиться Twitter Поделиться Mail.RU
АвторСообщение
Breecher
Аватара пользователя
Супермодератор
Супермодератор
 
Раздал: 120.8 ТБ
Скачал: 3.86 ТБ
Ратио: 452.739
Сообщения: 5781
Зарегистрирован: 07 окт 2012, 14:45
Откуда: Россия
Награды: 30
За 100 сообщений (1) За 500 сообщений (1) За 1000 сообщений (1) За 1500 сообщений (1) За 2000 сообщений (1) За 3000 сообщений (1) 5 Тб отданного (1) 10 Тб отданного (1) 15 Тб отданного (1) 20 Тб отданного (1) 30 Тб отданного (1) 250 релизов (1) 500 релизов (1) За 1000 сказанных спасибо (1) За 2000 сказанных спасибо (1) За 3000 сказанных спасибо (1) За 5000 сказанных спасибо (1) За 10000 сказанных спасибо (1) За 2000 полученных спасибо (1) За 4000 полученных спасибо (1) За 8000 полученных спасибо (1) За 10000 полученных спасибо (1) За 15000 полученных спасибо (1) 30 рипов (1) 50 рипов (1) 200 кармы (1) 500 кармы (1) 1000 кармы (1) Верный пользователь (1) Халява №5 (1)

Сообщение Breecher » 05 авг 2022, 23:05

Сказка о царе Салтане [1966, Сказка, Семейный, Детский, WEB-DLRip-AVC] - Скачать торрент

Оригинальное название: Сказка о царе Салтане
Жанр: Сказка, Семейный, Детский
Год выхода: 1966
Выпущено: СССР, Мосфильм
Режиссер: Александр Птушко
В ролях: Владимир Андреев, Лариса Голубкина, Олег Видов, Ксения Рябинкина, Сергей Мартинсон, Ольга Викландт, Вера Ивлева, Нина Беляева, Виктор Колпаков, Юрий Чекулаев, Валерий Носик, Григорий Шпигель, Евгений Майхровский, Яков Беленький, Борис Битюков, Сергей Голованов, Александр Дегтярь, Артём Карапетян, Юрий Киреев, Григорий Михайлов, Михаил Орлов, Дмитрий Орловский, Гурген Тонунц, Владимир Ферапонтов...

Описание: Три девицы под окном пряли поздно вечерком... А потом много чего было: и любовь, и клевета, и предательство, и чудеса, и множество волшебных приключений, и тридцать три богатыря, и, конечно же, счастливый конец...



Формат: MKV
Качество: WEB-DLRip-AVC
Видео: MPEG-4 AVC, ~ 2174 Кбит/с, 1024x436(1,85:1), 25 fps, 0.195 bit/pixel
Аудио: 48кГц, АС3, 2 ch, 384 Кбит/с
Продолжительность: 01:21:35
Субтитры: Нет

Релиз:
Общее
Полное имя : Сказка о царе Салтане.1966.WEB-DLRip-AVC_[New-team]_by_AVP_Studio.mkv
Формат : Matroska
Версия формата : Version 4
Размер файла : 1,46 Гбайт
Продолжительность : 1 ч. 21 м.
Общий поток : 2 560 Кбит/сек
Дата кодирования : UTC 2022-04-02 07:20:02
Программа кодирования : mkvmerge v63.0.0 ('Everything') 64-bit
Библиотека кодирования : libebml v1.4.2 + libmatroska v1.6.4

Видео
Идентификатор : 1
Формат : AVC
Формат/Информация : Advanced Video Codec
Профиль формата : High@L4.1
Настройки формата : CABAC / 10 Ref Frames
Параметр CABAC формата : Да
Параметр RefFrames формата : 10 кадров
Идентификатор кодека : V_MPEG4/ISO/AVC
Продолжительность : 1 ч. 21 м.
Битрейт : 2 174 Кбит/сек
Ширина : 1 024 пикселя
Высота : 436 пикселей
Соотношение сторон : 2,35:1
Режим частоты кадров : Постоянный
Частота кадров : 25,000 кадров/сек
Цветовое пространство : YUV
Субдискретизация насыщенности : 4:2:0
Битовая глубина : 8 бит
Тип развёртки : Прогрессивная
Бит/(Пиксели*Кадры) : 0.195
Размер потока : 1,24 Гбайт (85%)
Библиотека кодирования : x264 core 164 r3081 19856cc
Настройки программы : cabac=1 / ref=10 / deblock=1:-2:-1 / analyse=0x3:0x113 / me=umh / subme=10 / psy=1 / psy_rd=1.00:0.00 / mixed_ref=1 / me_range=32 / chroma_me=1 / trellis=2 / 8x8dct=1 / cqm=0 / deadzone=21,11 / fast_pskip=1 / chroma_qp_offset=-2 / threads=6 / lookahead_threads=1 / sliced_threads=0 / nr=0 / decimate=0 / interlaced=0 / bluray_compat=0 / constrained_intra=0 / bframes=8 / b_pyramid=2 / b_adapt=2 / b_bias=0 / direct=3 / weightb=1 / open_gop=0 / weightp=2 / keyint=250 / keyint_min=25 / scenecut=40 / intra_refresh=0 / rc=2pass / mbtree=0 / bitrate=2174 / ratetol=1.0 / qcomp=0.60 / qpmin=0 / qpmax=69 / qpstep=4 / cplxblur=20.0 / qblur=0.5 / ip_ratio=1.40 / pb_ratio=1.30 / aq=1:1.00
Язык : Russian
Default : Да
Forced : Нет

Аудио
Идентификатор : 2
Формат : AC-3
Формат/Информация : Audio Coding 3
Коммерческое название : Dolby Digital
Идентификатор кодека : A_AC3
Продолжительность : 1 ч. 21 м.
Вид битрейта : Постоянный
Битрейт : 384 Кбит/сек
Каналы : 6 каналов
Channel layout : L R C LFE Ls Rs
Частота : 48,0 КГц
Частота кадров : 31,250 кадров/сек (1536 SPF)
Метод сжатия : С потерями
Размер потока : 224 Мбайт (15%)
Язык : Russian
Default : Да
Forced : Нет

Текст #1
Идентификатор : 3
Формат : UTF-8
Идентификатор кодека : S_TEXT/UTF8
Идентификатор кодека/Информация : UTF-8 Plain Text
Продолжительность : 1 ч. 17 м.
Битрейт : 46 бит/сек
Count of elements : 436
Размер потока : 26,2 Кбайт (0%)
Язык : Russian
Default : Нет
Forced : Нет

Текст #2
Идентификатор : 4
Формат : UTF-8
Идентификатор кодека : S_TEXT/UTF8
Идентификатор кодека/Информация : UTF-8 Plain Text
Продолжительность : 1 ч. 21 м.
Битрейт : 32 бит/сек
Count of elements : 457
Размер потока : 19,2 Кбайт (0%)
Язык : English
Default : Нет
Forced : Нет

Меню
00:00:00.000 : ru:Титры
00:02:06.400 : ru:"Три девицы под окном..."
00:08:01.440 : ru:Пир честной. Коварные замыслы, дела ратные
00:17:35.000 : ru:"Сына Бог им дал в аршин..."
00:25:03.360 : ru:Указ царя
00:35:48.960 : ru:На острове Буяне
00:46:00.880 : ru:Князь Гвидон. "В царство славного Салтана..."
00:56:11.600 : ru:Диво дивное
01:06:18.200 : ru:Царевна Лебедь
01:13:07.680 : ru:Долгожданная встреча
Как качать, Как раздавать - Правила и инструкции
Торрент05 авг 2022, 23:05 [ 05 авг 2022, 23:05 ]

СКАЧАТЬ с просмотром рекламы
СтатусПроверен Breecher
.torrent скачан0 раз
Размер1.46 ГБ (1 566 804 066)

Вернуться в Советские фильмы

Кто сейчас на конференции

Сейчас этот форум просматривают: нет зарегистрированных пользователей

Ресурс не предоставляет электронные версии произведений, а занимается лишь коллекционированием и каталогизацией ссылок, присылаемых и публикуемых на форуме нашими читателями. Если вы являетесь правообладателем какого-либо представленного материала и не желаете чтобы ссылка на него находилась в нашем каталоге, свяжитесь с нами и мы незамедлительно удалим её. Файлы для обмена на трекере предоставлены пользователями сайта, и администрация не несёт ответственности за их содержание. Просьба не заливать файлы, защищенные авторскими правами, а также файлы нелегального содержания!