Сказка о царе Салтане [1966, Сказка, Семейный, Детский, WEBRip(1080р)] - Скачать торрент бесплатно

Модераторы: Модераторы Фильмы, мультфильмы, Союз Риперов

Поделиться ВКонтакте Поделиться Facebook Поделиться Twitter Поделиться Mail.RU
АвторСообщение
Breecher
Аватара пользователя
Супермодератор
Супермодератор
 
Раздал: 120.8 ТБ
Скачал: 3.86 ТБ
Ратио: 452.739
Сообщения: 5781
Зарегистрирован: 07 окт 2012, 14:45
Откуда: Россия
Награды: 30
За 100 сообщений (1) За 500 сообщений (1) За 1000 сообщений (1) За 1500 сообщений (1) За 2000 сообщений (1) За 3000 сообщений (1) 5 Тб отданного (1) 10 Тб отданного (1) 15 Тб отданного (1) 20 Тб отданного (1) 30 Тб отданного (1) 250 релизов (1) 500 релизов (1) За 1000 сказанных спасибо (1) За 2000 сказанных спасибо (1) За 3000 сказанных спасибо (1) За 5000 сказанных спасибо (1) За 10000 сказанных спасибо (1) За 2000 полученных спасибо (1) За 4000 полученных спасибо (1) За 8000 полученных спасибо (1) За 10000 полученных спасибо (1) За 15000 полученных спасибо (1) 30 рипов (1) 50 рипов (1) 200 кармы (1) 500 кармы (1) 1000 кармы (1) Верный пользователь (1) Халява №5 (1)

Сообщение Breecher » 05 авг 2022, 23:09

Сказка о царе Салтане [1966, Сказка, Семейный, Детский, WEBRip(1080р)] - Скачать торрент

Оригинальное название: Сказка о царе Салтане
Жанр: Сказка, Семейный, Детский
Год выхода: 1966
Выпущено: СССР, Мосфильм
Режиссер: Александр Птушко
В ролях: Владимир Андреев, Лариса Голубкина, Олег Видов, Ксения Рябинкина, Сергей Мартинсон, Ольга Викландт, Вера Ивлева, Нина Беляева, Виктор Колпаков, Юрий Чекулаев, Валерий Носик, Григорий Шпигель, Евгений Майхровский, Яков Беленький, Борис Битюков, Сергей Голованов, Александр Дегтярь, Артём Карапетян, Юрий Киреев, Григорий Михайлов, Михаил Орлов, Дмитрий Орловский, Гурген Тонунц, Владимир Ферапонтов...

Описание: Три девицы под окном пряли поздно вечерком... А потом много чего было: и любовь, и клевета, и предательство, и чудеса, и множество волшебных приключений, и тридцать три богатыря, и, конечно же, счастливый конец...



Формат: MKV
Качество: WEBRip(1080р)
Видео: MPEG-4 AVC, ~ 5713 Кбит/с, 1920x820, 25 fps
Аудио1: 48кГц, АС3, 1 ch, 224 Кбит/с, 16 bits
Аудио2: 48кГц, АС3, 6 ch, 448 Кбит/с, 16 bits
Продолжительность: 01:21:35
Субтитры: Русские, английские

General
Unique ID : 228840011432641286376120646745528368218 (0xAC28FBA91CD61352BC833C685D267C5A)
Complete name : Сказка о царе Салтане.1966.WEBRip.1080p.mkv
Format : Matroska
Format version : Version 2
File size : 3.71 GiB
Duration : 1 h 21 min
Overall bit rate : 6 514 kb/s
Encoded date : UTC 2020-04-12 15:21:22
Writing application : mkvmerge v7.8.0 ('River Man') 32bit built on Mar 27 2015 16:18:02
Writing library : libebml v1.3.1 + libmatroska v1.4.2

Video
ID : 1
Format : AVC
Format/Info : Advanced Video Codec
Format profile : High@L4.1
Format settings : CABAC / 5 Ref Frames
Format settings, CABAC : Yes
Format settings, ReFrames : 5 frames
Codec ID : V_MPEG4/ISO/AVC
Duration : 1 h 21 min
Bit rate : 5 713 kb/s
Width : 1 920 pixels
Height : 820 pixels
Display aspect ratio : 2.35:1
Frame rate mode : Constant
Frame rate : 25.000 FPS
Color space : YUV
Chroma subsampling : 4:2:0
Bit depth : 8 bits
Scan type : Progressive
Bits/(Pixel*Frame) : 0.145
Stream size : 3.26 GiB (88%)
Writing library : x264 core 157 r2867+103 0d6443f t_mod_Custom_2 [8-bit@all X86]
Encoding settings : cabac=1 / ref=5 / deblock=1:-2:-2 / analyse=0x3:0x113 / me=umh / subme=10 / psy=1 / fade_compensate=0.00 / psy_rd=1.02:0.00 / mixed_ref=1 / me_range=32 / chroma_me=1 / trellis=2 / 8x8dct=1 / cqm=0 / deadzone=21,11 / fast_pskip=1 / chroma_qp_offset=-2 / threads=12 / lookahead_threads=2 / sliced_threads=0 / nr=0 / decimate=1 / interlaced=0 / bluray_compat=0 / constrained_intra=0 / fgo=0 / bframes=9 / b_pyramid=2 / b_adapt=2 / b_bias=0 / direct=1 / weightb=1 / open_gop=0 / weightp=2 / keyint=250 / keyint_min=25 / scenecut=40 / intra_refresh=0 / rc_lookahead=60 / rc=crf / mbtree=0 / crf=18.5000 / qcomp=0.70 / qpmin=0:0:0 / qpmax=69:69:69 / qpstep=4 / vbv_maxrate=50000 / vbv_bufsize=62500 / crf_max=0.0 / nal_hrd=none / filler=0 / ip_ratio=1.45 / pb_ratio=1.25 / aq=2:1.00 / aq-sensitivity=10.00 / aq-factor=1.00:1.00:1.00 / aq2=0 / aq3=0
Language : Russian
Default : Yes
Forced : No
Color range : Limited
Color primaries : BT.709
Transfer characteristics : BT.709
Matrix coefficients : BT.709

Audio #1
ID : 2
Format : AC-3
Format/Info : Audio Coding 3
Codec ID : A_AC3
Duration : 1 h 21 min
Bit rate mode : Constant
Bit rate : 224 kb/s
Channel(s) : 1 channel
Channel positions : Front: C
Sampling rate : 48.0 kHz
Frame rate : 31.250 FPS (1536 SPF)
Bit depth : 16 bits
Compression mode : Lossy
Stream size : 131 MiB (3%)
Language : Russian
Service kind : Complete Main
Default : Yes
Forced : No

Audio #2
ID : 3
Format : AC-3
Format/Info : Audio Coding 3
Codec ID : A_AC3
Duration : 1 h 21 min
Bit rate mode : Constant
Bit rate : 448 kb/s
Channel(s) : 6 channels
Channel positions : Front: L C R, Side: L R, LFE
Sampling rate : 48.0 kHz
Frame rate : 31.250 FPS (1536 SPF)
Bit depth : 16 bits
Compression mode : Lossy
Stream size : 261 MiB (7%)
Language : Russian
Service kind : Complete Main
Default : No
Forced : No

Text #1
ID : 4
Format : UTF-8
Codec ID : S_TEXT/UTF8
Codec ID/Info : UTF-8 Plain Text
Language : Russian
Default : No
Forced : No

Text #2
ID : 5
Format : UTF-8
Codec ID : S_TEXT/UTF8
Codec ID/Info : UTF-8 Plain Text
Language : English
Default : No
Forced : No

Menu
00:00:00.000 : ru:Титры
00:02:02.520 : ru:"Три девицы под окном..."
00:08:01.440 : ru:Пир честной. Коварные замыслы, дела ратные
00:17:32.520 : ru:"Сына Бог им дал в аршин..."
00:25:03.360 : ru:Указ царя
00:35:48.960 : ru:На острове Буяне
00:46:00.880 : ru:Князь Гвидон. "В царство славного Салтана..."
00:56:11.600 : ru:Диво дивное
01:06:23.600 : ru:Царевна Лебедь
01:13:07.680 : ru:Долгожданная встреча
Как качать, Как раздавать - Правила и инструкции
Торрент05 авг 2022, 23:09 [ 05 авг 2022, 23:09 ]

СКАЧАТЬ с просмотром рекламы
СтатусПроверен Breecher
.torrent скачан0 раз
Размер3.71 ГБ (3 986 704 720)

Вернуться в Советские фильмы

Кто сейчас на конференции

Сейчас этот форум просматривают: нет зарегистрированных пользователей

Ресурс не предоставляет электронные версии произведений, а занимается лишь коллекционированием и каталогизацией ссылок, присылаемых и публикуемых на форуме нашими читателями. Если вы являетесь правообладателем какого-либо представленного материала и не желаете чтобы ссылка на него находилась в нашем каталоге, свяжитесь с нами и мы незамедлительно удалим её. Файлы для обмена на трекере предоставлены пользователями сайта, и администрация не несёт ответственности за их содержание. Просьба не заливать файлы, защищенные авторскими правами, а также файлы нелегального содержания!