Тугой узел [1956, Драма, SATRip-AVC] - Скачать торрент бесплатно

Модераторы: Модераторы Фильмы, мультфильмы, Союз Риперов

Поделиться ВКонтакте Поделиться Facebook Поделиться Twitter Поделиться Mail.RU
АвторСообщение
Breecher
Аватара пользователя
Супермодератор
Супермодератор
 
Раздал: 120.8 ТБ
Скачал: 3.86 ТБ
Ратио: 452.720
Сообщения: 5781
Зарегистрирован: 07 окт 2012, 14:45
Откуда: Россия
Награды: 30
За 100 сообщений (1) За 500 сообщений (1) За 1000 сообщений (1) За 1500 сообщений (1) За 2000 сообщений (1) За 3000 сообщений (1) 5 Тб отданного (1) 10 Тб отданного (1) 15 Тб отданного (1) 20 Тб отданного (1) 30 Тб отданного (1) 250 релизов (1) 500 релизов (1) За 1000 сказанных спасибо (1) За 2000 сказанных спасибо (1) За 3000 сказанных спасибо (1) За 5000 сказанных спасибо (1) За 10000 сказанных спасибо (1) За 2000 полученных спасибо (1) За 4000 полученных спасибо (1) За 8000 полученных спасибо (1) За 10000 полученных спасибо (1) За 15000 полученных спасибо (1) 30 рипов (1) 50 рипов (1) 200 кармы (1) 500 кармы (1) 1000 кармы (1) Верный пользователь (1) Халява №5 (1)

Сообщение Breecher » 05 авг 2022, 21:15

Тугой узел [1956, Драма, SATRip-AVC] - Скачать торрент

Оригинальное название: Тугой узел
Жанр: Драма
Год выхода: 1956
Выпущено: СССР, Мосфильм
Режиссер: Михаил Швейцер
В ролях: Виктор Авдюшко, Николай Сергеев, Олег Табаков, Павел Волков, Валентина Пугачёва, Валентина Березуцкая, Владимир Емельянов, Петр Кирюткин, Светлана Коновалова, Анатолий Дудоров, Николай Хрящиков, Григорий Михайлов...

Описание: По повести Владимира Тендрякова «Тугой узел».
Председатель колхоза Гмызин как может помогает Саше Комелеву, сыну недавно умершего секретаря райкома партии. Юноша поступает на заочное отделение института и начинает работать в колхозе. Появляется у него и любимая - черноглазая Катя…
Новый секретарь райкома Мансуров сначала зажигает всех своей энергией, стремлением вывести район в передовые. Но вскоре многие осознают, что руководствуется он не уважением к людям, а лишь собственным честолюбием.



Формат: MKV
Качество: SATRip-AVC
Видео: MPEG-4 AVC, ~ 1422 Кбит/с, 704->749x562 (4:3), 25 fps, 0.144 bit/pixel
Аудио: 48кГц, АС3, 2 ch, 192 Кбит/с
Продолжительность: 01:36:16
Оригинальная аудиодорожка: русский
Субтитры: Нет

Релиз:
Общее
Полное имя : Тугой узел.1957.SATRip-AVC_[New-team]_by_AVP_Studio.mkv
Формат : Matroska
Версия формата : Version 2
Размер файла : 1,09 Гбайт
Продолжительность : 1 ч. 36 м.
Общий поток : 1 616 Кбит/сек
Дата кодирования : UTC 2022-08-01 16:17:13
Программа кодирования : mkvmerge v6.9.1 ('Blue Panther') 32bit built on Apr 18 2014 18:15:44
Библиотека кодирования : libebml v1.3.0 + libmatroska v1.4.1

Видео
Идентификатор : 1
Формат : AVC
Формат/Информация : Advanced Video Codec
Профиль формата : High@L4.1
Настройки формата : CABAC / 10 Ref Frames
Параметр CABAC формата : Да
Параметр RefFrames формата : 10 кадров
Идентификатор кодека : V_MPEG4/ISO/AVC
Продолжительность : 1 ч. 36 м.
Битрейт : 1 422 Кбит/сек
Ширина : 704 пикселя
Высота : 562 пикселя
Соотношение сторон : 4:3
Режим частоты кадров : Постоянный
Частота кадров : 25,000 кадров/сек
Цветовое пространство : YUV
Субдискретизация насыщенности : 4:2:0
Битовая глубина : 8 бит
Тип развёртки : Прогрессивная
Бит/(Пиксели*Кадры) : 0.144
Размер потока : 960 Мбайт (86%)
Библиотека кодирования : x264 core 164 r3081 19856cc
Настройки программы : cabac=1 / ref=10 / deblock=1:-2:-1 / analyse=0x3:0x113 / me=umh / subme=10 / psy=1 / psy_rd=1.00:0.00 / mixed_ref=1 / me_range=32 / chroma_me=1 / trellis=2 / 8x8dct=1 / cqm=0 / deadzone=21,11 / fast_pskip=1 / chroma_qp_offset=-2 / threads=6 / lookahead_threads=1 / sliced_threads=0 / nr=0 / decimate=0 / interlaced=0 / bluray_compat=0 / constrained_intra=0 / bframes=8 / b_pyramid=2 / b_adapt=2 / b_bias=0 / direct=3 / weightb=1 / open_gop=0 / weightp=2 / keyint=250 / keyint_min=25 / scenecut=40 / intra_refresh=0 / rc=2pass / mbtree=0 / bitrate=1422 / ratetol=1.0 / qcomp=0.60 / qpmin=0 / qpmax=69 / qpstep=4 / cplxblur=20.0 / qblur=0.5 / ip_ratio=1.40 / pb_ratio=1.30 / aq=1:1.00
Default : Да
Forced : Нет

Аудио
Идентификатор : 2
Формат : AC-3
Формат/Информация : Audio Coding 3
Коммерческое название : Dolby Digital
Идентификатор кодека : A_AC3
Продолжительность : 1 ч. 36 м.
Вид битрейта : Постоянный
Битрейт : 192 Кбит/сек
Каналы : 2 канала
Channel layout : L R
Частота : 48,0 КГц
Частота кадров : 31,250 кадров/сек (1536 SPF)
Метод сжатия : С потерями
Размер потока : 132 Мбайт (12%)
Default : Да
Forced : Нет
Как качать, Как раздавать - Правила и инструкции
Торрент05 авг 2022, 21:15 [ 05 авг 2022, 21:15 ]

СКАЧАТЬ с просмотром рекламы
СтатусПроверен Breecher
.torrent скачан0 раз
Размер1.09 ГБ (1 168 527 195)

Вернуться в Советские фильмы

Кто сейчас на конференции

Сейчас этот форум просматривают: vinodel

Ресурс не предоставляет электронные версии произведений, а занимается лишь коллекционированием и каталогизацией ссылок, присылаемых и публикуемых на форуме нашими читателями. Если вы являетесь правообладателем какого-либо представленного материала и не желаете чтобы ссылка на него находилась в нашем каталоге, свяжитесь с нами и мы незамедлительно удалим её. Файлы для обмена на трекере предоставлены пользователями сайта, и администрация не несёт ответственности за их содержание. Просьба не заливать файлы, защищенные авторскими правами, а также файлы нелегального содержания!