В зоне особого внимания [1977, Боевик, WEB-DLRip(1080р)] - Скачать торрент бесплатно

Модераторы: Модераторы Фильмы, мультфильмы, Союз Риперов

Поделиться ВКонтакте Поделиться Facebook Поделиться Twitter Поделиться Mail.RU
АвторСообщение
Breecher
Аватара пользователя
Супермодератор
Супермодератор
 
Раздал: 120.8 ТБ
Скачал: 3.86 ТБ
Ратио: 452.723
Сообщения: 5781
Зарегистрирован: 07 окт 2012, 14:45
Откуда: Россия
Награды: 30
За 100 сообщений (1) За 500 сообщений (1) За 1000 сообщений (1) За 1500 сообщений (1) За 2000 сообщений (1) За 3000 сообщений (1) 5 Тб отданного (1) 10 Тб отданного (1) 15 Тб отданного (1) 20 Тб отданного (1) 30 Тб отданного (1) 250 релизов (1) 500 релизов (1) За 1000 сказанных спасибо (1) За 2000 сказанных спасибо (1) За 3000 сказанных спасибо (1) За 5000 сказанных спасибо (1) За 10000 сказанных спасибо (1) За 2000 полученных спасибо (1) За 4000 полученных спасибо (1) За 8000 полученных спасибо (1) За 10000 полученных спасибо (1) За 15000 полученных спасибо (1) 30 рипов (1) 50 рипов (1) 200 кармы (1) 500 кармы (1) 1000 кармы (1) Верный пользователь (1) Халява №5 (1)

Сообщение Breecher » 05 авг 2022, 20:12

В зоне особого внимания [1977, Боевик, WEB-DLRip(1080р)] - Скачать торрент

Оригинальное название: В зоне особого внимания
Жанр: Боевик
Год выхода: 1977
Выпущено: СССР, Мосфильм
Режиссер: Андрей Малюковв
В ролях: Борис Галкин, Михай Волонтир, Анатолий Кузнецов, Сергей Волкош, Игорь Иванов, Александр Пятков, Елена Цыплакова, Юрий Чернов, Александр Гай, Николай Крюков, Владимир Заманский, Анатолий Веденкин, Михаил Кокшенов, Сергей Подгорный, Иван Агафонов, Борис Бачурин

Описание: Готовятся большие военные учения. Командир гвардейского полка направляет в тыл «врага» три диверсионные группы для обнаружения и захвата замаскированного командного пункта. Срок исполнения — двое суток. Разведчики выполняют задание в условиях, максимально приближенных к боевым.



Формат: MKV
Качество: WEB-DLRip(1080р)
Видео: MPEG-4 AVC, ~ 5694 Кбит/с, 1920x1080, 24 fps
Аудио: 48кГц, АAС, 2 ch, 256 Кбит/с
Продолжительность: 01:36:08
Субтитры: Русские

General
Unique ID : 229226121736364673390453555169784328483 (0xAC73585E4AC105B65DEBB1BD8E017123)
Complete name : В зоне особого внимания.1080p.mkv
Format : Matroska
Format version : Version 4 / Version 2
File size : 4.00 GiB
Duration : 1 h 36 min
Overall bit rate : 5 952 kb/s
Encoded date : UTC 2022-06-06 11:13:19
Writing application : mkvmerge v41.0.0 ('Smarra') 32-bit
Writing library : libebml v1.3.9 + libmatroska v1.5.2

Video
ID : 1
Format : AVC
Format/Info : Advanced Video Codec
Format profile : High@L4
Format settings : CABAC / 4 Ref Frames
Format settings, CABAC : Yes
Format settings, ReFrames : 4 frames
Codec ID : V_MPEG4/ISO/AVC
Duration : 1 h 36 min
Bit rate : 5 694 kb/s
Width : 1 920 pixels
Height : 1 080 pixels
Display aspect ratio : 16:9
Frame rate mode : Constant
Frame rate : 24.000 FPS
Color space : YUV
Chroma subsampling : 4:2:0
Bit depth : 8 bits
Scan type : Progressive
Bits/(Pixel*Frame) : 0.114
Stream size : 3.82 GiB (96%)
Default : Yes
Forced : No

Audio
ID : 2
Format : AAC
Format/Info : Advanced Audio Codec
Format profile : LC
Codec ID : A_AAC-2
Duration : 1 h 36 min
Bit rate : 256 kb/s
Channel(s) : 2 channels
Channel positions : Front: L R
Sampling rate : 48.0 kHz
Frame rate : 46.875 FPS (1024 SPF)
Compression mode : Lossy
Stream size : 176 MiB (4%)
Language : Russian
Default : Yes
Forced : No

Text
ID : 3
Format : UTF-8
Codec ID : S_TEXT/UTF8
Codec ID/Info : UTF-8 Plain Text
Duration : 1 h 35 min
Bit rate : 73 b/s
Count of elements : 914
Stream size : 51.2 KiB (0%)
Language : Russian
Default : No
Forced : No
Как качать, Как раздавать - Правила и инструкции
Торрент05 авг 2022, 20:12 [ 05 авг 2022, 20:12 ]

СКАЧАТЬ с просмотром рекламы
СтатусПроверен Breecher
.torrent скачан1 раз
Размер4 ГБ (4 291 516 394)

Вернуться в Советские фильмы

Кто сейчас на конференции

Сейчас этот форум просматривают: нет зарегистрированных пользователей

Ресурс не предоставляет электронные версии произведений, а занимается лишь коллекционированием и каталогизацией ссылок, присылаемых и публикуемых на форуме нашими читателями. Если вы являетесь правообладателем какого-либо представленного материала и не желаете чтобы ссылка на него находилась в нашем каталоге, свяжитесь с нами и мы незамедлительно удалим её. Файлы для обмена на трекере предоставлены пользователями сайта, и администрация не несёт ответственности за их содержание. Просьба не заливать файлы, защищенные авторскими правами, а также файлы нелегального содержания!