Вам телеграмма [1983, Мелодрама, SATRip (AVC)] - Скачать торрент бесплатно

Модераторы: Модераторы Фильмы, мультфильмы, Союз Риперов

Поделиться ВКонтакте Поделиться Facebook Поделиться Twitter Поделиться Mail.RU
АвторСообщение
Печаль
Аватара пользователя
Красавица Riper.AM
Красавица Riper.AM
 
Сообщения: 1085
Зарегистрирован: 14 июн 2010, 00:43
Карма: 1520
-2--2--2--2--2--2--2--2-

Сообщение Печаль » 11 янв 2017, 20:20

Вам телеграмма [1983, Мелодрама, SATRip (AVC)] - Скачать торрент

Название: Вам телеграмма

Дата выхода: 1983
Страна: СССР
Кинокомпания: Молдова Фильм
Жанр: Мелодрама
Продолжительность: 01:06:44
Режиссёр: Борис Конунов
В ролях: Татьяна Догилева, Карина Моритц, Глеб Скоморохов, Миша Нагорняк, Марика Балан, Юрий Сенкевич, Виктория Гимпу, Виктор Ильичёв, Юрий Катин-Ярцев, Алла Сергийко
Описание: Анна работает разносчицей телеграмм. У нее не складывается личная жизнь с мужем Сергеем. Единственное, что их связывает - подрастающий сын Антошка. Как в сказке Анна получает телеграмму от любящего ее одноклассника Алехина с предложением переехать жить к нему в только что полученную им квартиру. Сможет ли Анна бросить всё и уехать к любящему её человеку, чтобы начать новую жизнь?


Дополнительно:


Качество: SATRip (AVC)
Формат файла: MKV
Видео кодек: x264
Аудио кодек: AC3
Видео: MPEG-4 AVC, 2700 Кбит/с, 712x570@759х570
Аудио: AC3, 2 ch, 192 Кбит/с
MediaInfo: Уникальный идентификатор : 59080244416096801276714677969647852445 (0x2C7270F173C18B80A2E2D8CC18185B9D)
Полное имя : D:\Razdacha\Вам телеграмма.1983.SATRip(AVC).mkv
Формат : Matroska
Версия формата : Version 2
Размер файла : 1,35 Гбайт
Продолжительность : 1 ч. 6 м.
Общий поток : 2895 Кбит/сек
Дата кодирования : UTC 2017-01-10T17:41:31Z
Программа кодирования : HandBrake 0.10.5 2016021100
Библиотека кодирования : Lavf55.12.0 / Lavf55.12.0

Видео
Идентификатор : 1
Формат : AVC
Формат/Информация : Advanced Video Codec
Профиль формата : High@L4.1
Параметр CABAC формата : Да
Параметр ReFrames формата : 9 кадров
Идентификатор кодека : V_MPEG4/ISO/AVC
Продолжительность : 1 ч. 6 м.
Битрейт : 2700 Кбит/сек
Ширина : 712 пикселей
Высота : 570 пикселей
Соотношение сторон : 4:3
Режим частоты кадров : Постоянный
Частота кадров : 25,000 кадров/сек
Цветовое пространство : YUV
Субдискретизация насыщенности : 4:2:0
Битовая глубина : 8 бит
Тип развёртки : Прогрессивная
Бит/(Пиксели*Кадры) : 0.266
Размер потока : 1,23 Гбайт (91%)
Библиотека кодирования : x264 core 142 r2479 dd79a61
Настройки программы : cabac=1 / ref=9 / deblock=1:-1:-1 / analyse=0x3:0x133 / me=umh / subme=11 / psy=1 / psy_rd=1.00:0.00 / mixed_ref=1 / me_range=32 / chroma_me=1 / trellis=2 / 8x8dct=1 / cqm=0 / deadzone=21,11 / fast_pskip=1 / chroma_qp_offset=-2 / threads=12 / lookahead_threads=3 / sliced_threads=0 / nr=0 / decimate=1 / interlaced=0 / bluray_compat=0 / constrained_intra=0 / bframes=16 / b_pyramid=2 / b_adapt=2 / b_bias=0 / direct=3 / weightb=1 / open_gop=0 / weightp=2 / keyint=250 / keyint_min=25 / scenecut=40 / intra_refresh=0 / rc_lookahead=60 / rc=2pass / mbtree=1 / bitrate=2700 / ratetol=1.0 / qcomp=0.60 / qpmin=0 / qpmax=69 / qpstep=4 / cplxblur=20.0 / qblur=0.5 / vbv_maxrate=50000 / vbv_bufsize=62500 / nal_hrd=none / filler=0 / ip_ratio=1.40 / aq=1:1.00
Default : Да
Forced : Нет
Цветовой диапазон : Limited
Основные цвета : BT.601 PAL
Характеристики трансфера : BT.709
Коэффициенты матрицы : BT.601

Аудио
Идентификатор : 2
Формат : AC-3
Формат/Информация : Audio Coding 3
Расширение режима : CM (complete main)
Параметр Endianness формата : Big
Идентификатор кодека : A_AC3
Продолжительность : 1 ч. 6 м.
Вид битрейта : Постоянный
Битрейт : 192 Кбит/сек
Каналы : 2 канала
Расположение каналов : Front: L R
Частота : 48,0 КГц
Частота кадров : 31,250 кадров/сек (1536 spf)
Метод сжатия : С потерями
Задержка видео : -5 мс.
Размер потока : 91,7 Мбайт (7%)
Заголовок : Stereo
Default : Да
Forced : Нет


Как качать, Как раздавать - Правила и инструкции
Торрент11 янв 2017, 20:20 [ 11 янв 2017, 20:20 ]

СКАЧАТЬ с просмотром рекламы
СтатусПроверен mersicc
.torrent скачан48 раз
Размер1.35 ГБ (1 449 334 988)

VELEN

Адмирал

Аватара пользователя
 

Сообщения: 596

Зарегистрирован: 12 ноя 2010, 13:56

Откуда: АНТАРКТИДА

Карма: 2263
-2--2--2--2--2--2--2--2--2--2-

Сообщение VELEN» 12 янв 2017, 13:04

хороший фильм моей молодости и артистической карьеры артистов этого фильма,ставших популярными в наши дни.

доц

Капитан

 

Сообщения: 451

Зарегистрирован: 26 мар 2016, 17:35

Откуда: СССР - РФ

Карма: 538
-2--2--2-

Сообщение доц» 12 янв 2017, 18:28

подтверждаю слова вышесказанного товарища - поэтому скачаю и посмотрю , спасибо раздающему ! *роза

Cheyzz

Адмирал

Аватара пользователя
 

Сообщения: 930

Зарегистрирован: 08 авг 2010, 19:18

Откуда: Камчатский край,Усть Камчатский р-он,п.Ключи

Карма: 2364
-2--2--2--2--2--2--2--2--2--2-

Сообщение Cheyzz» 25 янв 2017, 22:07

Вообще совдеповские фильмы почти все можно пересматривать не один раз,что и происходит,т.к.тогда умели делать кино,не знаю,как это получалось,может ответственности было больше,т.к.снимали на государственные деньги.Сейчас снимают ерунду полную,деньги есть,а снимают *блевать За редким исключением разве что (Лето 43,Бумер,Штрафбат,Бандитский Петербург (Адвокат)и т.п.),можно набрать конечно смотрибельных,но это как исключение.А совдеповские повтрюсь,можно все пересматривать


Вернуться в Советские фильмы



Кто сейчас на конференции

Сейчас этот форум просматривают: нет зарегистрированных пользователей

Ресурс не предоставляет электронные версии произведений, а занимается лишь коллекционированием и каталогизацией ссылок, присылаемых и публикуемых на форуме нашими читателями. Если вы являетесь правообладателем какого-либо представленного материала и не желаете чтобы ссылка на него находилась в нашем каталоге, свяжитесь с нами и мы незамедлительно удалим её. Файлы для обмена на трекере предоставлены пользователями сайта, и администрация не несёт ответственности за их содержание. Просьба не заливать файлы, защищенные авторскими правами, а также файлы нелегального содержания!