Большой Фитиль [1963, Комедия, DVDRip] - Скачать торрент бесплатно

Модераторы: Модераторы Фильмы, мультфильмы, Союз Риперов

Поделиться ВКонтакте Поделиться Facebook Поделиться Twitter Поделиться Mail.RU
АвторСообщение
mersicc
Аватара пользователя
Модератор ТВ-ШОУ
Модератор ТВ-ШОУ
 
Сообщения: 520
Зарегистрирован: 25 окт 2015, 09:15
Карма: 163
-1-

Сообщение mersicc » 05 апр 2016, 10:25

Большой Фитиль [1963, Комедия, DVDRip] - Скачать торрент

Название: Большой Фитиль

Дата выхода: 1963
Страна: Россия
Жанр: Комедия
Продолжительность: 01:07:38
Режиссёр: Мери Анджапаридзе, Эдуард Бочаров, София Милькина, Александр Митта, Владимир Фетин, Владимир Рапопорт, В.Бордзиловский, Ю.Прытков, Н.Федоров.
В ролях: Леонид Быков, Ролан Быков, Вадим Захарченко, Георгий Милляр, Юрий Никулин, Николай Крючков, Юрий Медведев, Николай Парфёнов, Михаил Пуговкин, Николай Трофимов, Данута Столярская, Сергей Филиппов, Леонид Харитонов, Станислав Чекан, Григорий Шпигель, Геннадий Некрасов, Константин Немоляев, Павел Павленко, Владимир Прокофьев, Зоя Василькова, Сергей Михалков.
Описание: В путь оправляется экспресс сатирического направления. Машинист С.Михалков дает прощальный гудок... На первом вагоне надпись - "Дачурка". Далее следуют 8 новелл:
- "Дачурка" реж. Софья Милькина (Н.Парфёнов)
- "Влип" реж. Мэри Анджапаридзе (Ю.Никулин)
- "Сон в руку" реж. Александр Митта (Ю.Медведев, Р.Быков)
- "Гудок" реж. Владимир Рапопорт (Н.Крючков)
- "Увертюра" реж. Александр Митта (Л.Быков)
- "Расплата" реж. Владимир Фетин (С. Филиппов, Н.Трофимов)
- "Жалкий жребий" реж. Эдуард Бочаров (Л.Харитонов)
- "Миллионер" (анимация)
Между новеллами "Гудок" и "Увертюра" - интермедия "Шашки" (М.Пуговкин, С. Филиппов).
Релиз группа:
Rip by Nenuzhny
Качество: DVDRip
Формат файла: AVI
Видео кодек: DivX
Аудио кодек: MP3
Видео: 688x528, 25fps, DIvX 6, Insane Quality, 2200 kbps
Аудио: 48 kHz, MPEG Layer 3, 1 ch, ~112.00 kbps avg
MediaInfo: General
Complete name : D:\bolshoj.fitil.avi
Format : AVI
Format/Info : Audio Video Interleave
File size : 1.10 GiB
Duration : 1h 7mn
Overall bit rate : 2 322 Kbps
Writing application : VirtualDubMod 1.5.10.2 (build 2542/release)
Writing library : VirtualDubMod build 2542/release

Video
ID : 0
Format : MPEG-4 Visual
Format settings, BVOP : 2
Format settings, QPel : No
Format settings, GMC : No warppoints
Format settings, Matrix : Default (H.263)
Muxing mode : Packed bitstream
Codec ID : DX50
Codec ID/Hint : DivX 5
Duration : 1h 7mn
Bit rate : 2 200 Kbps
Width : 688 pixels
Height : 528 pixels
Display aspect ratio : 5:4
Original display aspect rat : 4:3
Frame rate : 25.000 fps
Color space : YUV
Chroma subsampling : 4:2:0
Bit depth : 8 bits
Scan type : Progressive
Compression mode : Lossy
Bits/(Pixel*Frame) : 0.242
Stream size : 1.04 GiB (95%)
Writing library : DivX 6.8.3-6.8.4 (UTC 2008-06-07)

Audio
ID : 1
Format : MPEG Audio
Format version : Version 1
Format profile : Layer 3
Codec ID : 55
Codec ID/Hint : MP3
Duration : 1h 7mn
Bit rate mode : Constant
Bit rate : 112 Kbps
Channel(s) : 1 channel
Sampling rate : 48.0 KHz
Compression mode : Lossy
Stream size : 54.2 MiB (5%)
Alignment : Aligned on interleaves
Interleave, duration : 40 ms (1.00 video frame)
Interleave, preload duratio : 504 ms
Writing library : LAME3.97
Encoding settings : -m m -V 4 -q 0 -b 112


Как качать, Как раздавать - Правила и инструкции
Торрент05 апр 2016, 10:25 [ 05 апр 2016, 10:25 ]

СКАЧАТЬ с просмотром рекламы
СтатусПроверен mersicc
.torrent скачан8 раз
Размер1.1 ГБ (1 177 677 824)

mersicc

Модератор ТВ-ШОУ

Аватара пользователя
 

Сообщения: 520

Зарегистрирован: 25 окт 2015, 09:15

Карма: 163
-1-

Сообщение mersicc» 05 апр 2016, 11:15

На здаровье.

MASLOFF

Адмирал

Аватара пользователя
  Предупреждений: 2

Сообщения: 618

Зарегистрирован: 26 дек 2011, 05:37

Откуда: РОССИЯ

Предупреждения: 2

Карма: 83

Сообщение MASLOFF» 05 апр 2016, 13:03

Ух ты!!!

Мой жанр, забираю!



Чуб

Капитан

Аватара пользователя
 

Сообщения: 426

Зарегистрирован: 29 дек 2015, 22:19

Откуда: ХАРКIВ

Карма: 431
-2--2--2-

Сообщение Чуб» 27 апр 2016, 15:14

MASLOFF писал(а):Ух ты!!!

Мой жанр, забираю!

У mersicc такой жанр в почете.Забираю однозначно.
Спасибо. *круто


Вернуться в Советские фильмы



Кто сейчас на конференции

Сейчас этот форум просматривают: нет зарегистрированных пользователей

Ресурс не предоставляет электронные версии произведений, а занимается лишь коллекционированием и каталогизацией ссылок, присылаемых и публикуемых на форуме нашими читателями. Если вы являетесь правообладателем какого-либо представленного материала и не желаете чтобы ссылка на него находилась в нашем каталоге, свяжитесь с нами и мы незамедлительно удалим её. Файлы для обмена на трекере предоставлены пользователями сайта, и администрация не несёт ответственности за их содержание. Просьба не заливать файлы, защищенные авторскими правами, а также файлы нелегального содержания!