Над Тиссой [1958, Боевик, Военный, DVDRip.AVC] - Скачать торрент бесплатно

Модераторы: Модераторы Фильмы, мультфильмы, Союз Риперов

Поделиться ВКонтакте Поделиться Facebook Поделиться Twitter Поделиться Mail.RU
АвторСообщение
mersicc
Аватара пользователя
Модератор ТВ-ШОУ
Модератор ТВ-ШОУ
 
Сообщения: 503
Зарегистрирован: 25 окт 2015, 09:15
Карма: 164
-1-

Сообщение mersicc » 06 апр 2016, 15:46

Над Тиссой [1958, Боевик, Военный, DVDRip.AVC] - Скачать торрент

Название: Над Тиссой

Дата выхода: 1958
Страна: Россия
Кинокомпания: Мосфильм
Жанр: Боевик, Военный
Продолжительность: 01:19:12
Режиссёр: Дмитрий Васильев
В ролях: Афанасий Кочетков, Татьяна Конюхова, Нина Никитина, Андрей Гончаров, Александр Хвыля, Дмитрий Дубов, Леонид Чубаров, Виктор Соломатин, Валентин Зубков, Степан Каюков, Николай Крючков, Константин Старостин, Галина Фролова, Александр Гречаный, Магда Зизда, Виктория Чаева
Описание: Конец 50-х годов, Закарпатье. Двое диверсантов переходят советскую границу около Тисы. Один погибает при задержании, а второй под видом фронтовика Ивана Белограя появляется в совхозе и начинает ухаживать за Терезией, с которой был заочно знаком по переписке. Влюбленный в Терезию пограничник Андрей Смолярчук первым начинает подозревать Белограя. Благодаря бдительности органов госбезопасности, шпион разоблачен, и предотвращен запланированный им взрыв железнодорожного моста.
Релиз группа: RiperAM ->
Качество: DVDRip.AVC
Формат файла: MKV
Видео кодек: x264
Аудио кодек: AC3
Видео: MPEG-4 AVC, 2432 Кбит/с, 704x556@750x556
Аудио: AC-3; 16 bit 48 Khz; 2ch 192 Kbps
MediaInfo: General
Unique ID : 186902408888020313033771007445615136347 (0x8C9C18376A0D162CA838894CEC964E5B)
Complete name : Над Тиссой.1958.mkv
Format : Matroska
Format version : Version 2
File size : 1.45 GiB
Duration : 1h 19mn
Overall bit rate : 2 626 Kbps
Movie name : «Над Тиссой»
Encoded date : UTC 2012-10-08 16:56:40
Writing application : mkvmerge v5.8.0 ('No Sleep / Pillow') built on Sep 2 2012 15:37:04
Writing library : libebml v1.2.3 + libmatroska v1.3.0
Comment : DVDRip-AVC
Date released : October 8th 2012
Encoded by : imgeorgest®
Video
ID : 1
Format : AVC
Format/Info : Advanced Video Codec
Format profile : High@L4.1
Format settings, CABAC : Yes
Format settings, ReFrames : 16 frames
Codec ID : V_MPEG4/ISO/AVC
Duration : 1h 19mn
Bit rate : 2 432 Kbps
Width : 704 pixels
Height : 556 pixels
Display aspect ratio : 4:3
Original display aspect ratio : 4:3
Frame rate : 25.000 fps
Color space : YUV
Chroma subsampling : 4:2:0
Bit depth : 8 bits
Scan type : Progressive
Bits/(Pixel*Frame) : 0.249
Stream size : 1.32 GiB (91%)
Title : Над Тиссой.1958
Writing library : x264 core 125 r2200 999b753
Encoding settings : cabac=1 / ref=16 / deblock=1:-1:1 / analyse=0x3:0x133 / me=umh / subme=11 / psy=1 / psy_rd=1.00:0.00 / mixed_ref=1 / me_range=48 / chroma_me=1 / trellis=2 / 8x8dct=1 / cqm=0 / deadzone=21,11 / fast_pskip=0 / chroma_qp_offset=-2 / threads=12 / lookahead_threads=2 / sliced_threads=0 / nr=0 / decimate=0 / interlaced=0 / bluray_compat=0 / constrained_intra=0 / bframes=10 / b_pyramid=2 / b_adapt=2 / b_bias=0 / direct=3 / weightb=1 / open_gop=0 / weightp=2 / keyint=250 / keyint_min=25 / scenecut=40 / intra_refresh=0 / rc_lookahead=60 / rc=2pass / mbtree=1 / bitrate=2432 / ratetol=1.0 / qcomp=0.65 / qpmin=0 / qpmax=69 / qpstep=4 / cplxblur=20.0 / qblur=0.5 / vbv_maxrate=50000 / vbv_bufsize=62500 / nal_hrd=none / ip_ratio=1.40 / aq=1:1.00
Language : Russian
Default : Yes
Forced : No
Color primaries : BT.601-6 525, BT.1358 525, BT.1700 NTSC, SMPTE 170M
Transfer characteristics : BT.601-6 525, BT.601-6 625, BT.1358 525, BT.1358 625, BT.1700 NTSC, SMPTE 170M
Matrix coefficients : BT.601-6 525, BT.1358 525, BT.1700 NTSC, SMPTE 170M
Audio
ID : 2
Format : AC-3
Format/Info : Audio Coding 3
Mode extension : CM (complete main)
Codec ID : A_AC3
Duration : 1h 19mn
Bit rate mode : Constant
Bit rate : 192 Kbps
Channel(s) : 2 channels
Channel positions : Front: L R
Sampling rate : 48.0 KHz
Bit depth : 16 bits
Compression mode : Lossy
Stream size : 109 MiB (7%)
Title : Оригинал AC-3; 16 bit 48 Khz; 2ch 192 Kbps; CBR
Language : Russian
Default : Yes
Forced : No

Как качать, Как раздавать - Правила и инструкции
Торрент06 апр 2016, 15:46 [ 06 апр 2016, 15:46 ]

СКАЧАТЬ с просмотром рекламы
СтатусПроверен mersicc
.torrent скачан1 раз
Размер1.45 ГБ (1 560 141 244)

babula

Созерцатель

 

Сообщения: 5

Зарегистрирован: 11 фев 2016, 13:34

Карма: 3

Сообщение babula» 06 апр 2016, 16:47

про погранцов есс *шпасибы


Вернуться в Советские фильмы



Кто сейчас на конференции

Сейчас этот форум просматривают: нет зарегистрированных пользователей

Ресурс не предоставляет электронные версии произведений, а занимается лишь коллекционированием и каталогизацией ссылок, присылаемых и публикуемых на форуме нашими читателями. Если вы являетесь правообладателем какого-либо представленного материала и не желаете чтобы ссылка на него находилась в нашем каталоге, свяжитесь с нами и мы незамедлительно удалим её. Файлы для обмена на трекере предоставлены пользователями сайта, и администрация не несёт ответственности за их содержание. Просьба не заливать файлы, защищенные авторскими правами, а также файлы нелегального содержания!