Офицеры [1971, Военный, Драма, BDRip-AVC (Цветная версия)] - Скачать торрент бесплатно

Модераторы: Модераторы Фильмы, мультфильмы, Союз Риперов

Поделиться ВКонтакте Поделиться Facebook Поделиться Twitter Поделиться Mail.RU
АвторСообщение
mersicc
Аватара пользователя
Модератор ТВ-ШОУ
Модератор ТВ-ШОУ
 
Сообщения: 504
Зарегистрирован: 25 окт 2015, 09:15
Карма: 166
-1-

Сообщение mersicc » 06 апр 2016, 17:46

Офицеры [1971, Военный, Драма, BDRip-AVC (Цветная версия)] - Скачать торрент

Название: Офицеры

Дата выхода: 1971
Страна: СССР
Кинокомпания: к/ст имени М.Горького
Жанр: Военный, Драма
Продолжительность: 01:35:26
Режиссёр: Владимир Роговой, Владимир Златоустовский
В ролях: Алина Покровская, Георгий Юматов, Василий Лановой, Александр Воеводин, Наталия Рычагова, Андрей Анисимов, Юрий Сорокин, Владимир Дружников, Шаджан Акмухамедов, Евгений Весник, Муза Крепкогорская, Станислав Симонов, Борис Гитин, Роберт Чумак, Арнольд Алтмяэ, Николай Горлов, Валерий Рыжаков, Лев Потемкин, Назар Бекмиев, Евгений Супонев, Петр Тимофеев, Анатолий Соболев, Валерий Пушкарев, Галина Микова, Виктор Проскурин, Георгий Дворников, Юрий Заев, Володя Селиванов, Владимир Златоустовский, Иван Рыжов
Описание: Есть такая профессия - Родину защищать! Невероятно трогательный, искренний и честный фильм о долге перед страной и самим собой, о любви к женщине и родной земле, о настоящей мужской дружбе. Офицеры советской армии - Алексей Трофимов и Иван Варавва - прошли боль, страх и ужас войны, но смогли пронести через всю жизнь верность Родине и сохранить честь и достоинство. Любовь к одной-единственной женщине дает им силы вынести все испытания и не утратить доброту и веру в завтрашний день.
Rip by art-61 ®
Качество: BDRip-AVC (Цветная версия)
Формат файла: MKV
Видео кодек: x264
Аудио кодек: AC3
Видео: MPEG-4 AVC/H.264, 1024x426, ~2564 Мбит/с
Аудио: AC3, 6 ch 448 Кбит/с
IMDB: http://www.imdb.com/title/tt0067517/
MediaInfo: Общее
Уникальный идентификатор : 208478505031479322181281878898668857455 (0x9CD77FE32C0E872380CAB4095EC9E86F)
Полное имя : I:\Oficery.1971.x264.BDRip.(AVC).mkv
Формат : Matroska
Версия формата : Version 2
Размер файла : 2,01 Гбайт
Продолжительность : 1 ч. 35 м.
Общий поток : 3012 Кбит/сек
Название фильма : Офицеры [1971]
Дата кодирования : UTC 2012-04-20 08:18:24
Программа кодирования : mkvmerge v5.3.0 ('I could have danced') built on Feb 9 2012 10:38:07
Библиотека кодирования : libebml v1.2.3 + libmatroska v1.3.0

Видео
Идентификатор : 1
Формат : AVC
Формат/Информация : Advanced Video Codec
Профиль формата : High@L4.1
Параметр CABAC формата : Да
Параметр ReFrames формата : 9 кадров
Идентификатор кодека : V_MPEG4/ISO/AVC
Продолжительность : 1 ч. 35 м.
Битрейт : 2564 Кбит/сек
Ширина : 1024 пикселя
Высота : 426 пикселей
Соотношение сторон : 2,40:1
Частота кадров : 24,000 кадра/сек
Цветовое пространство : YUV
Субдискретизация насыщенности : 4:2:0
Битовая глубина : 8 бит
Тип развёртки : Прогрессивная
Бит/(Пиксели*Кадры) : 0.245
Размер потока : 1,67 Гбайт (83%)
Заголовок : by 0ptimus
Библиотека кодирования : x264 core 119 r2106 07efeb4
Настройки программы : cabac=1 / ref=9 / deblock=1:-2:-1 / analyse=0x3:0x113 / me=esa / subme=11 / psy=1 / psy_rd=1.00:0.20 / mixed_ref=1 / me_range=48 / chroma_me=1 / trellis=2 / 8x8dct=1 / cqm=0 / deadzone=21,11 / fast_pskip=0 / chroma_qp_offset=-3 / threads=4 / sliced_threads=0 / nr=0 / decimate=1 / interlaced=0 / bluray_compat=0 / constrained_intra=0 / bframes=5 / b_pyramid=2 / b_adapt=2 / b_bias=0 / direct=3 / weightb=1 / open_gop=0 / weightp=2 / keyint=250 / keyint_min=23 / scenecut=40 / intra_refresh=0 / rc=2pass / mbtree=0 / bitrate=2564 / ratetol=1.0 / qcomp=0.60 / qpmin=0 / qpmax=69 / qpstep=4 / cplxblur=20.0 / qblur=0.5 / ip_ratio=1.40 / pb_ratio=1.30 / aq=1:1.00
Язык : Russian
Default : Да
Forced : Нет

Аудио
Идентификатор : 2
Формат : AC-3
Формат/Информация : Audio Coding 3
Расширение режима : CM (complete main)
Параметр Endianness формата : Big
Идентификатор кодека : A_AC3
Продолжительность : 1 ч. 35 м.
Вид битрейта : Постоянный
Битрейт : 448 Кбит/сек
Каналы : 6 каналов
Расположение каналов : Front: L C R, Side: L R, LFE
Частота : 48,0 КГц
Битовая глубина : 16 бит
Метод сжатия : С потерями
Размер потока : 306 Мбайт (15%)
Язык : Russian
Default : Да
Forced : Нет

Текст
Идентификатор : 3
Формат : UTF-8
Идентификатор кодека : S_TEXT/UTF8
Идентификатор кодека/Информация : UTF-8 Plain Text
Язык : Russian
Default : Нет
Forced : Нет

Меню
00:00:00.000 : :Chapter 01
00:04:04.916 : :Chapter 02
00:11:43.041 : :Chapter 03
00:17:07.416 : :Chapter 04
00:22:46.583 : :Chapter 05
00:27:08.125 : :Chapter 06
00:32:57.416 : :Chapter 07
00:39:33.708 : :Chapter 08
00:45:24.875 : :Chapter 09
00:53:09.291 : :Chapter 10
00:59:20.666 : :Chapter 11
01:06:59.291 : :Chapter 12
01:12:30.333 : :Chapter 13
01:17:33.666 : :Chapter 14
01:24:26.916 : :Chapter 15
01:31:35.958 : :Chapter 16
01:35:25.916 : :Chapter 17

Как качать, Как раздавать - Правила и инструкции
Торрент06 апр 2016, 17:46 [ 06 апр 2016, 17:46 ]

СКАЧАТЬ с просмотром рекламы
СтатусПроверен Vadim
.torrent скачан2 раз
Размер2.01 ГБ (2 156 078 334)

Вернуться в Советские фильмы



Кто сейчас на конференции

Сейчас этот форум просматривают: нет зарегистрированных пользователей

Ресурс не предоставляет электронные версии произведений, а занимается лишь коллекционированием и каталогизацией ссылок, присылаемых и публикуемых на форуме нашими читателями. Если вы являетесь правообладателем какого-либо представленного материала и не желаете чтобы ссылка на него находилась в нашем каталоге, свяжитесь с нами и мы незамедлительно удалим её. Файлы для обмена на трекере предоставлены пользователями сайта, и администрация не несёт ответственности за их содержание. Просьба не заливать файлы, защищенные авторскими правами, а также файлы нелегального содержания!