Застава в горах [1953, Военный, Приключения, SATRip-AVC] - Скачать торрент бесплатно

Модераторы: Модераторы Фильмы, мультфильмы, Союз Риперов

Поделиться ВКонтакте Поделиться Facebook Поделиться Twitter Поделиться Mail.RU
АвторСообщение
mersicc
Аватара пользователя
Модератор ТВ-ШОУ
Модератор ТВ-ШОУ
 
Сообщения: 504
Зарегистрирован: 25 окт 2015, 09:15
Карма: 166
-1-

Сообщение mersicc » 06 апр 2016, 13:46

Застава в горах [1953, Военный, Приключения, SATRip-AVC] - Скачать торрент

Название: Застава в горах

Дата выхода: 1953
Страна: СССР
Жанр: Военный, Приключения
Продолжительность: 01:36:54
Режиссёр: Константин Юдин, Владимир Герасимов
В ролях: Владлен Давыдов, Марина Кузнецова, Елена Шатрова, Сергей Гурзо (старший), Станислав Чекан, Аркадий Щербаков, Александр Суснин, Михаил Майоров, Борис Попов, Лев Лобов, Мухаммеджан Касымов, Владимир Белокуров, Олег Солюс, Алексей Краснопольский, Георгий Черноволенко
Описание: Из Москвы на погранзаставу приезжает старший лейтенант Лунин и назначается заместителем начальника. Он быстро включается в боевую жизнь, а тем временем банда Исмаил-бека, оплачиваемая иностранной разведкой, активизирует свои действия...
Релиз группа:
Rip by
Качество: SATRip-AVC
Формат файла: MKV
Видео кодек: x264
Аудио кодек: AC3
Видео: MPEG-4 AVC, 3250 Кбит/с, 690x572@736x572
Аудио: AC3, 2 ch, 192 Кбит/с
MediaInfo: General
Unique ID : 230067859328611126547299690527941217422 (0xAD15753C5B0C5AA4A130166804E84C8E)
Complete name : D:\Zastava.v.gorah.1953.SATRip-AVC_[New-team]_by_AVP_Studio.mkv
Format : Matroska
Format version : Version 2
File size : 1.46 GiB
Duration : 1h 36mn
Overall bit rate : 2 155 Kbps
Encoded date : UTC 2016-01-18 15:24:12
Writing application : mkvmerge v6.1.0 ('Old Devil') built on Mar 4 2013 09:10:42
Writing library : libebml v1.3.0 + libmatroska v1.4.0
DURATION : 01:36:54.600000000
NUMBER_OF_FRAMES : 242275
NUMBER_OF_BYTES : 139550400
_STATISTICS_WRITING_APP : mkvmerge v8.6.0 ('A Place In Your World') 64bit
_STATISTICS_WRITING_DATE_UT : 2016-01-17 12:08:50
_STATISTICS_TAGS : BPS DURATION NUMBER_OF_FRAMES NUMBER_OF_BYTES

Video
ID : 1
Format : AVC
Format/Info : Advanced Video Codec
Format profile : High@L4.1
Format settings, CABAC : Yes
Format settings, ReFrames : 10 frames
Codec ID : V_MPEG4/ISO/AVC
Duration : 1h 36mn
Bit rate : 1 961 Kbps
Width : 688 pixels
Height : 572 pixels
Display aspect ratio : 4:3
Frame rate mode : Constant
Frame rate : 25.000 fps
Color space : YUV
Chroma subsampling : 4:2:0
Bit depth : 8 bits
Scan type : Progressive
Bits/(Pixel*Frame) : 0.199
Stream size : 1.30 GiB (89%)
Writing library : x264 core 130 r2273 b3065e6
Encoding settings : cabac=1 / ref=10 / deblock=1:-2:-1 / analyse=0x3:0x113 / me=umh / subme=10 / psy=1 / psy_rd=1.00:0.00 / mixed_ref=1 / me_range=32 / chroma_me=1 / trellis=2 / 8x8dct=1 / cqm=0 / deadzone=21,11 / fast_pskip=1 / chroma_qp_offset=-2 / threads=6 / lookahead_threads=1 / sliced_threads=0 / nr=0 / decimate=0 / interlaced=0 / bluray_compat=0 / constrained_intra=0 / bframes=8 / b_pyramid=2 / b_adapt=2 / b_bias=0 / direct=3 / weightb=1 / open_gop=0 / weightp=2 / keyint=250 / keyint_min=25 / scenecut=40 / intra_refresh=0 / rc=2pass / mbtree=0 / bitrate=1961 / ratetol=1.0 / qcomp=0.60 / qpmin=0 / qpmax=69 / qpstep=4 / cplxblur=20.0 / qblur=0.5 / ip_ratio=1.40 / pb_ratio=1.30 / aq=1:1.00
Default : Yes
Forced : No

Audio
ID : 2
Format : MPEG Audio
Format version : Version 1
Format profile : Layer 2
Codec ID : A_MPEG/L2
Codec ID/Hint : MP2
Duration : 1h 36mn
Bit rate mode : Constant
Bit rate : 192 Kbps
Channel(s) : 2 channels
Sampling rate : 48.0 KHz
Compression mode : Lossy
Delay relative to video : 3ms
Stream size : 133 MiB (9%)
Default : Yes
Forced : No


Как качать, Как раздавать - Правила и инструкции
Торрент06 апр 2016, 13:30 [ 06 апр 2016, 13:30 ]

СКАЧАТЬ с просмотром рекламы
СтатусПроверен mersicc
.torrent скачан866 раз
Размер2.33 ГБ (2 502 998 013)

kosmos

Созерцатель

 

Сообщения: 5

Зарегистрирован: 11 фев 2016, 16:54

Карма: 8

Сообщение kosmos» 06 апр 2016, 17:10

фильм то пенсионного возраста :D


Вернуться в Советские фильмы



Кто сейчас на конференции

Сейчас этот форум просматривают: нет зарегистрированных пользователей

Ресурс не предоставляет электронные версии произведений, а занимается лишь коллекционированием и каталогизацией ссылок, присылаемых и публикуемых на форуме нашими читателями. Если вы являетесь правообладателем какого-либо представленного материала и не желаете чтобы ссылка на него находилась в нашем каталоге, свяжитесь с нами и мы незамедлительно удалим её. Файлы для обмена на трекере предоставлены пользователями сайта, и администрация не несёт ответственности за их содержание. Просьба не заливать файлы, защищенные авторскими правами, а также файлы нелегального содержания!