Жан-Батист Мольер - Мнимый больной (2 части из 2) (телеверсия) [2006, Телеспектакль, комедия, экранизация, SATRip (AVC)] - Скачать торрент бесплатно

Модераторы: Кандидат в Союз Риперов, Модераторы ТВ-Шоу, документальные, спорт, Союз Риперов

Поделиться ВКонтакте Поделиться Facebook Поделиться Twitter Поделиться Mail.RU
АвторСообщение
Печаль
Аватара пользователя
Красавица Riper.AM
Красавица Riper.AM
 
Раздал: 10.29 ТБ
Скачал: 3.55 ТБ
Ратио: 5.372
Сообщения: 1413
Зарегистрирован: 14 июн 2010, 00:43
Награды: 18
За 100 сообщений (1) За 500 сообщений (1) За 1000 сообщений (1) 5 Тб отданного (1) 10 Тб отданного (1) 250 релизов (1) 500 релизов (1) 1000 релизов (1) За новинки ТВ-Шоу (1) За 2000 полученных спасибо (1) За 4000 полученных спасибо (1) За 8000 полученных спасибо (1) За 10000 полученных спасибо (1) За 15000 полученных спасибо (1) 200 кармы (1) 500 кармы (1) 1000 кармы (1) Верный пользователь (1)
Карма: 2075
-2--2--2--2--2--2--2--2--2--2-

Сообщение Печаль » 14 янв 2017, 21:30

Жан-Батист Мольер - Мнимый больной (2 части из 2) (телеверсия) [2006, Телеспектакль, комедия, экранизация, SATRip (AVC)] - Скачать торрент

Название: Жан-Батист Мольер - Мнимый больной (2 части из 2) (телеверсия)
Страна: Россия, Телеканал "Культура", Государственный академический Малый театр
Режиссёр: Сергей Женовач, Любовь Тимофеева
Жанр: Телеспектакль, комедия, экранизация
Продолжительность: 01:16:20+00:58:56

Дата выхода: 2006
Участники: Василий Бочкарёв, Евгения Глушенко, Ольга Молочная, Варвара Куценко, Александр Клюквин, Глеб Подгородинский, Владимир Носик, Виктор Низовой, Кирилл Дёмин, Игорь Григорьев (II), Людмила Титова, Сергей Видинеев, Олег Доброван, Степан Коршунов, Евгений Куршинский, Дмитрий Солодовник, Денис Курочка
Описание: Легкий и изящный спектакль по знаменитой пьесе Мольера (перевод Николая Минского). Главный герой, господин Арган - настоящий ипохондрик, который терроризирует семью мнимыми болезнями. С этим готова мириться только его вторая жена - у нее свои расчеты. Не разбирая, кто искренне к нему привязан, а кто - ловко делает вид, Арган готов разрушить судьбу своей единственной дочери, лишь бы заполучить в зятья врача. К счастью, его планы нарушает забавная интрига, которую плетут бойкая и остроумная служанка и другие домочадцы...
Дополнительно:


Качество: SATRip (AVC)
Формат файла: MKV
Видео кодек: x264
Аудио кодек: AC3
Видео: MPEG4-AVC, ~ 2200 Кбит/с, 700x572@746x572
Аудио: AC3, 2 ch, 192 Кбит/с
MediaInfo: Полное имя : D:\gotov\Мнимый больной.(2 части из 2).2006.SATRip(AVC)\01.Мнимый больной.mkv
Формат : Matroska
Версия формата : Version 2
Размер файла : 1,28 Гбайт
Продолжительность : 1 ч. 16 м.
Общий поток : 2395 Кбит/сек
Дата кодирования : UTC 2017-01-07T18:54:55Z
Программа кодирования : HandBrake 0.10.5 2016021100
Библиотека кодирования : Lavf55.12.0 / Lavf55.12.0

Видео
Идентификатор : 1
Формат : AVC
Формат/Информация : Advanced Video Codec
Профиль формата : High@L4.1
Параметр CABAC формата : Да
Параметр ReFrames формата : 9 кадров
Идентификатор кодека : V_MPEG4/ISO/AVC
Продолжительность : 1 ч. 16 м.
Битрейт : 2200 Кбит/сек
Ширина : 700 пикселей
Высота : 572 пикселя
Соотношение сторон : 4:3
Соотношение сторон в оригинале : 4:3
Режим частоты кадров : Постоянный
Частота кадров : 25,000 кадров/сек
Цветовое пространство : YUV
Субдискретизация насыщенности : 4:2:0
Битовая глубина : 8 бит
Тип развёртки : Прогрессивная
Бит/(Пиксели*Кадры) : 0.220
Размер потока : 1,15 Гбайт (90%)
Библиотека кодирования : x264 core 142 r2479 dd79a61
Настройки программы : cabac=1 / ref=9 / deblock=1:-1:-1 / analyse=0x3:0x133 / me=umh / subme=11 / psy=1 / psy_rd=1.00:0.00 / mixed_ref=1 / me_range=32 / chroma_me=1 / trellis=2 / 8x8dct=1 / cqm=0 / deadzone=21,11 / fast_pskip=1 / chroma_qp_offset=-2 / threads=12 / lookahead_threads=3 / sliced_threads=0 / nr=0 / decimate=1 / interlaced=0 / bluray_compat=0 / constrained_intra=0 / bframes=16 / b_pyramid=2 / b_adapt=2 / b_bias=0 / direct=3 / weightb=1 / open_gop=0 / weightp=2 / keyint=250 / keyint_min=25 / scenecut=40 / intra_refresh=0 / rc_lookahead=60 / rc=2pass / mbtree=1 / bitrate=2200 / ratetol=1.0 / qcomp=0.60 / qpmin=0 / qpmax=69 / qpstep=4 / cplxblur=20.0 / qblur=0.5 / vbv_maxrate=50000 / vbv_bufsize=62500 / nal_hrd=none / filler=0 / ip_ratio=1.40 / aq=1:1.00
Default : Да
Forced : Нет
Цветовой диапазон : Limited
Основные цвета : BT.601 PAL
Характеристики трансфера : BT.709
Коэффициенты матрицы : BT.601

Аудио
Идентификатор : 2
Формат : AC-3
Формат/Информация : Audio Coding 3
Расширение режима : CM (complete main)
Параметр Endianness формата : Big
Идентификатор кодека : A_AC3
Продолжительность : 1 ч. 16 м.
Вид битрейта : Постоянный
Битрейт : 192 Кбит/сек
Каналы : 2 канала
Расположение каналов : Front: L R
Частота : 48,0 КГц
Частота кадров : 31,250 кадров/сек (1536 spf)
Метод сжатия : С потерями
Задержка видео : -5 мс.
Размер потока : 105 Мбайт (8%)
Заголовок : Stereo
Default : Да
Forced : Нет


Как качать, Как раздавать - Правила и инструкции
Торрент14 янв 2017, 21:30 [ 14 янв 2017, 21:30 ]

СКАЧАТЬ с просмотром рекламы
СтатусПроверен Vadim
.torrent скачан34 раз
Размер2.26 ГБ (2 429 873 213)

Вернуться в Театр



Кто сейчас на конференции

Сейчас этот форум просматривают: нет зарегистрированных пользователей

Ресурс не предоставляет электронные версии произведений, а занимается лишь коллекционированием и каталогизацией ссылок, присылаемых и публикуемых на форуме нашими читателями. Если вы являетесь правообладателем какого-либо представленного материала и не желаете чтобы ссылка на него находилась в нашем каталоге, свяжитесь с нами и мы незамедлительно удалим её. Файлы для обмена на трекере предоставлены пользователями сайта, и администрация не несёт ответственности за их содержание. Просьба не заливать файлы, защищенные авторскими правами, а также файлы нелегального содержания!