(Grunge) Nirvana Nevermind - 1991, FLAC, Lossless - Скачать торрент бесплатно

Alternative, Punk, Emo, Hardcore, Indie, Crossover, Nu Metal

Модераторы: Модераторы Музыки, Союз Риперов

Альтернативная Музыка в mp3 cкачать торрент бесплатно без регистрации.
Поделиться ВКонтакте Поделиться Facebook Поделиться Twitter Поделиться Mail.RU
АвторСообщение
ligfaerd
Аватара пользователя
Модератор Музыки
Модератор Музыки
 
Сообщения: 78
Зарегистрирован: 23 авг 2015, 17:59
Откуда: Россия
Карма: 33

Сообщение ligfaerd » 04 ноя 2015, 22:39

(Grunge) Nirvana Nevermind - 1991, FLAC, Lossless - Скачать торрент

Название: Nevermind
Исполнитель/Группа: Nirvana
Название: DGC
Жанр аудио: Grunge
Страна: США

Дата выхода: 1991
Тип Рипа: tracks+.cue
Аудио кодек: FLAC
Битрейт: Lossless
Количество треков: 12
Продолжительность: 00:59:21
Треклист: 01. Smells Like Teen Spirit (5:02)
02. In Bloom (4:15)
03. Come As You Are (3:39)
04. Breed (3:04)
05. Lithium (4:17)
06. Polly (2:57)
07. Territorial Pissings (2:23)
08. Drain You (3:44)
09. Lounge Act (2:37)
10. Stay Away (3:33)
11. On A Plain (3:16)
12. Something In The Way (20:35)
Релиз группа: RiperAM ->
EAC лог: Exact Audio Copy V1.0 beta 3 from 29. August 2011

EAC extraction logfile from 23. August 2014, 12:29

Nirvana / Nevermind

Used drive : MATSHITADVD-RAM UJ880AS Adapter: 0 ID: 1

Read mode : Secure
Utilize accurate stream : Yes
Defeat audio cache : Yes
Make use of C2 pointers : No

Read offset correction : 102
Overread into Lead-In and Lead-Out : No
Fill up missing offset samples with silence : Yes
Delete leading and trailing silent blocks : No
Null samples used in CRC calculations : Yes
Used interface : Native Win32 interface for Win NT & 2000
Gap handling : Appended to previous track

Used output format : User Defined Encoder
Selected bitrate : 1024 kBit/s
Quality : High
Add ID3 tag : No
Command line compressor : C:\Program Files (x86)\Exact Audio Copy\Flac\flac.exe
Additional command line options : -8 -V -T "artist=%artist%" -T "title=%title%" -T "album=%albumtitle%" -T "date=%year%" -T "tracknumber=%tracknr%" -T "genre=%genre%" %source%

TOC of the extracted CD

Track | Start | Length | Start sector | End sector
---------------------------------------------------------
1 | 0:00.33 | 5:01.42 | 33 | 22649
2 | 5:02.00 | 4:14.70 | 22650 | 41769
3 | 9:16.70 | 3:39.05 | 41770 | 58199
4 | 12:56.00 | 3:03.60 | 58200 | 71984
5 | 15:59.60 | 4:16.73 | 71985 | 91257
6 | 20:16.58 | 2:57.02 | 91258 | 104534
7 | 23:13.60 | 2:23.03 | 104535 | 115262
8 | 25:36.63 | 3:43.60 | 115263 | 132047
9 | 29:20.48 | 2:36.67 | 132048 | 143814
10 | 31:57.40 | 3:32.38 | 143815 | 159752
11 | 35:30.03 | 3:16.27 | 159753 | 174479
12 | 38:46.30 | 20:35.03 | 174480 | 267107

Track 1

Filename D:\EAC\Nirvana [1991] Nevermind\01 - Smells Like Teen Spirit.wav

Pre-gap length 0:00:02.33

Peak level 97.7 %
Extraction speed 1.6 X
Track quality 100.0 %
Test CRC 978BEAA0
Copy CRC 978BEAA0
Accurately ripped (confidence 31) [3611B28B] (AR v2)
Copy OK

Track 2

Filename D:\EAC\Nirvana [1991] Nevermind\02 - In Bloom.wav

Pre-gap length 0:00:00.22

Peak level 97.7 %
Extraction speed 1.5 X
Track quality 99.9 %
Test CRC DA12E742
Copy CRC DA12E742
Accurately ripped (confidence 32) [AC6DCD60] (AR v2)
Copy OK

Track 3

Filename D:\EAC\Nirvana [1991] Nevermind\03 - Come As You Are.wav

Pre-gap length 0:00:00.22

Peak level 97.7 %
Extraction speed 1.8 X
Track quality 100.0 %
Test CRC 69ABAAF9
Copy CRC 69ABAAF9
Accurately ripped (confidence 32) [BD8ED4FB] (AR v2)
Copy OK

Track 4

Filename D:\EAC\Nirvana [1991] Nevermind\04 - Breed.wav

Peak level 97.7 %
Extraction speed 1.9 X
Track quality 100.0 %
Test CRC 0CA4E590
Copy CRC 0CA4E590
Accurately ripped (confidence 32) [1036239A] (AR v2)
Copy OK

Track 5

Filename D:\EAC\Nirvana [1991] Nevermind\05 - Lithium.wav

Pre-gap length 0:00:00.40

Peak level 97.7 %
Extraction speed 1.9 X
Track quality 99.9 %
Test CRC 22DF67AA
Copy CRC 22DF67AA
Accurately ripped (confidence 32) [21B2EF64] (AR v2)
Copy OK

Track 6

Filename D:\EAC\Nirvana [1991] Nevermind\06 - Polly.wav

Pre-gap length 0:00:00.35

Peak level 85.1 %
Extraction speed 2.1 X
Track quality 100.0 %
Test CRC 567DC749
Copy CRC 567DC749
Accurately ripped (confidence 31) [CA2A217E] (AR v2)
Copy OK

Track 7

Filename D:\EAC\Nirvana [1991] Nevermind\07 - Territorial Pissings.wav

Pre-gap length 0:00:02.55

Peak level 97.7 %
Extraction speed 2.0 X
Track quality 100.0 %
Test CRC EAA2B830
Copy CRC EAA2B830
Accurately ripped (confidence 32) [C39E4624] (AR v2)
Copy OK

Track 8

Filename D:\EAC\Nirvana [1991] Nevermind\08 - Drain You.wav

Peak level 97.7 %
Extraction speed 2.3 X
Track quality 100.0 %
Test CRC 0AAB71AC
Copy CRC 0AAB71AC
Accurately ripped (confidence 32) [ED1831B7] (AR v2)
Copy OK

Track 9

Filename D:\EAC\Nirvana [1991] Nevermind\09 - Lounge Act.wav

Peak level 92.0 %
Extraction speed 2.3 X
Track quality 100.0 %
Test CRC 38B8E21E
Copy CRC 38B8E21E
Accurately ripped (confidence 32) [3195903A] (AR v2)
Copy OK

Track 10

Filename D:\EAC\Nirvana [1991] Nevermind\10 - Stay Away.wav

Pre-gap length 0:00:00.17

Peak level 97.7 %
Extraction speed 2.5 X
Track quality 100.0 %
Test CRC 27719695
Copy CRC 27719695
Accurately ripped (confidence 32) [13D55EEB] (AR v2)
Copy OK

Track 11

Filename D:\EAC\Nirvana [1991] Nevermind\11 - On A Plain.wav

Pre-gap length 0:00:00.55

Peak level 97.7 %
Extraction speed 2.5 X
Track quality 100.0 %
Test CRC 707A62E5
Copy CRC 707A62E5
Accurately ripped (confidence 32) [0F3DF2AF] (AR v2)
Copy OK

Track 12

Filename D:\EAC\Nirvana [1991] Nevermind\12 - Something In The Way.wav

Pre-gap length 0:00:01.60

Peak level 97.6 %
Extraction speed 3.1 X
Track quality 99.9 %
Test CRC 37F5AD82
Copy CRC 37F5AD82
Accurately ripped (confidence 33) [EE1FDED9] (AR v2)
Copy OK

All tracks accurately ripped

No errors occurred

End of status report

==== Log checksum 52A12B6FFC96740FF84A1A58B0348015CDDCE9B79494434A19C0DFF91458AA6A ====

Как качать, Как раздавать - Правила и инструкции
Торрент04 ноя 2015, 22:39 [ 04 ноя 2015, 22:39 ]

СКАЧАТЬ с просмотром рекламы
СтатусПроверен
.torrent скачан39 раз
Размер320.32 МБ (335 883 994)
Black Metal Terrorist

Вернуться в Alternative



Кто сейчас на конференции

Сейчас этот форум просматривают: нет зарегистрированных пользователей

Ресурс не предоставляет электронные версии произведений, а занимается лишь коллекционированием и каталогизацией ссылок, присылаемых и публикуемых на форуме нашими читателями. Если вы являетесь правообладателем какого-либо представленного материала и не желаете чтобы ссылка на него находилась в нашем каталоге, свяжитесь с нами и мы незамедлительно удалим её. Файлы для обмена на трекере предоставлены пользователями сайта, и администрация не несёт ответственности за их содержание. Просьба не заливать файлы, защищенные авторскими правами, а также файлы нелегального содержания!