Злата Огневич. Моя история (2017) DVB - Скачать торрент бесплатно

Модераторы: Модераторы Музыки, Союз Риперов

Поделиться ВКонтакте Поделиться Facebook Поделиться Twitter Поделиться Mail.RU
АвторСообщение
Гриф-L
Аватара пользователя
Капитан
Капитан
 
Сообщения: 358
Зарегистрирован: 22 дек 2015, 03:59
Карма: 188
-1-

Сообщение Гриф-L » 07 янв 2017, 22:20

Злата Огневич. Моя история (2017) DVB - Скачать торрент

Исполнитель/Группа: Злата Огневич
Альбом/Название: Моя история
Жанр: POP
Год выпуска: 2017
Продолжительность: 01:31:05

Описание:Это яркое шоу - первое сольное выступление певицы на главной концертной площадке страны, во Дворце "Украина".
Масштабные декорации, неординарные постановки от режиссера Елены Коляденко и Freedom-ballet, оригинальные графика и световое решение создали грандиозное шоу Златы Огневич. Каждый диалог певицы со зрителем, будь то песня или короткие фразы между композициями, сопровождались невероятным энергетическим взаимообменом. А украинская тематика многих номеров шоу-программы и новый подход к такому явлению, как вертеп, стали настоящей неожиданностью для гостей концерта. Ведь Злата сумела заново прочесть некоторые моменты истории и культуры Украины.
Также в концерте принимали участие музыканты группы "Скрябін" и Евгений Толочный, презентовав песню "ВодаВогонь". Приятным сюрпризом для зрителей стало выступление Нины Матвиенко.

Формат: MPG
Качество: DVB
Видео кодек: MPEG-2
Аудио кодек: MP2
Видео: MPEG-2, 704x576@1024x576, ~3500 Kbps
Аудио: MP2, 2 ch, 192 Kbps, CBR

Общее
Полное имя : G:\Zlata_Ognevish.mpg
Формат : MPEG-PS
Размер файла : 2,40 Гбайт
Продолжительность : 1 ч. 31 м.
Режим общего битрейта : Переменный
Общий поток : 3770 Кбит/сек
Библиотека кодирования : (dvd5: Jun 16 2014)

Видео
Идентификатор : 224 (0xE0)
Формат : MPEG Video
Версия формата : Version 2
Профиль формата : Main@Main
Параметр BVOP формата : Да
Параметр матрицы формата : Выборочная
Параметр GOP формата : Variable
Структура изображения : Frame
Продолжительность : 1 ч. 31 м.
Вид битрейта : Переменный
Битрейт : 3503 Кбит/сек
Максимальный битрейт : 8000 Кбит/сек
Ширина : 704 пикселя
Высота : 576 пикселей
Соотношение сторон : 16:9
Частота кадров : 25,000 кадров/сек
Стандарт вещания : PAL
Цветовое пространство : YUV
Субдискретизация насыщенности : 4:2:0
Битовая глубина : 8 бит
Тип развёртки : Чересстрочная
Порядок развёртки : Верхнее поле первое
Метод сжатия : С потерями
Бит/(Пиксели*Кадры) : 0.346
Временной код первого кадра : 00:00:00:00
Оригинал временного кода : Group of pictures header
GOP, открыто/закрыто : Открыто
GOP, открыто/закрыто на первом кадре : Закрыто
Размер потока : 2,23 Гбайт (93%)
Библиотека кодирования : (dvd5: Jun 16 2014)

Аудио
Идентификатор : 192 (0xC0)
Формат : MPEG Audio
Версия формата : Version 1
Профиль формата : Layer 2
Продолжительность : 1 ч. 31 м.
Вид битрейта : Постоянный
Битрейт : 192 Кбит/сек
Каналы : 2 канала
Частота : 48,0 КГц
Метод сжатия : С потерями
Размер потока : 125 Мбайт (5%)
Как качать, Как раздавать - Правила и инструкции
Торрент28 мар 2017, 18:49 [ 28 мар 2017, 18:49 ]

СКАЧАТЬ с просмотром рекламы
Статус-
.torrent скачан75 раз
Размер2.4 ГБ (2 575 568 896)

Вернуться в Видеоклипы / Концерты



Кто сейчас на конференции

Сейчас этот форум просматривают: нет зарегистрированных пользователей

Ресурс не предоставляет электронные версии произведений, а занимается лишь коллекционированием и каталогизацией ссылок, присылаемых и публикуемых на форуме нашими читателями. Если вы являетесь правообладателем какого-либо представленного материала и не желаете чтобы ссылка на него находилась в нашем каталоге, свяжитесь с нами и мы незамедлительно удалим её. Файлы для обмена на трекере предоставлены пользователями сайта, и администрация не несёт ответственности за их содержание. Просьба не заливать файлы, защищенные авторскими правами, а также файлы нелегального содержания!