Земля до начала времен Части 1-14 / The Land Before Time [1988-2016, Мультфильм, Приключения, Семейный, BDRip 1080р] - Скачать торрент бесплатно

Модераторы: Модераторы Фильмы, мультфильмы, Союз Риперов

Поделиться ВКонтакте Поделиться Facebook Поделиться Twitter Поделиться Mail.RU
АвторСообщение
Download more
Аватара пользователя
Специалист
Специалист
 
Сообщения: 147
Зарегистрирован: 19 ноя 2016, 16:36
Откуда: г. Астана, Казахстан
Карма: 34

Сообщение Download more » 08 янв 2017, 22:12

Земля до начала времен Части 1-14 / The Land Before Time [1988-2016, Мультфильм, Приключения, Семейный, BDRip 1080р] - Скачать торрент

Название: Земля до начала времен Части 1-14
Оригинальное название: The Land Before Time

Дата выхода: 1988-2016
Страна: США
Жанр: Мультфильм, Приключения, Семейный
Продолжительность: 01:05:52, 01:13:03, 01:10:43, 01:13:52, 01:13:00, 01:14:01, 01:15:39, 01:11:25, 01:20:43, 01:20:50, 01:17:05, 01:12:27, 01:08:49, 01:18:44
Перевод: Профессиональный (полное дублирование)
Роли озвучивали: Гэбриел Дэймон, Кендес Хатсон, Джудит Барси, Уилл Райян, Пэт Хингл, Хелен Шейвер, Бёрк Бирнс, Bill Erwin
Субтитры: русские, английские
Режиссёр: Дон Блат
Режиссёр: Don Bluth
Описание: Было время, когда нога человека еще не ступала на Землю. То было время извергающихся вулканов, громадных землетрясений и ужасных катаклизмов. Наша планета тогда была населена удивительными и странными существами.
Герой этого мультика, очаровательный бронтозаврик Крошки-Ножки, отправился на поиски легендарной Великой Долины, где по слухам можно неплохо подкрепиться. По пути он прихватил с собой в путешествие еще четырех малышей-динозавриков. В дороге эту пеструю компанию поджидают удивительные и опасные приключения.

Дополнительно: 14 часть 2016 года без перевода.

Аудио #1: pic 48 kHz, AC3 Dolby Digital, 3/2 (L,C,R,l,r) + LFE ch, 448 kbps |DUB|
Аудио #2: pic 48 kHz, AC3 Dolby Digital, 2/0 (L,R), ~192.00 kbps |DUB|
Аудио #3: pic 48 kHz, AC3 Dolby Digital, 2/0 (L,R), ~192.00 kbps |MVO|
Аудио #4: pic 48 kHz, AC3 Dolby Digital, 2/0 (L,R), ~192.00 kbps |ENG|
Аудио #5: pic 48 kHz, AC3 Dolby Digital, 3/2 (L,C,R,l,r) + LFE ch, 448 kbps |ENG|



Rip by Автор рипа: Есмуханов Данияр Исламбекович | daniyar.esmuhanov
Качество: BDRip 1080р
Формат файла: MKV
Видео кодек: x264
Аудио кодек: AC3
Видео: 1920x1080/1040, 23.976 fps, ~2500 Kbps
Аудио: 48 kHz, AC3 Dolby Digital, 3/2 (L,C,R,l,r) + LFE ch, 448 kbps |DUB|
Аудио #2: 48 kHz, AC3 Dolby Digital, 3/2 (L,C,R,l,r) + LFE ch, 448 kbps |ENG|
MediaInfo: Видео
Идентификатор : 1
Формат : AVC
Формат/Информация : Advanced Video Codec
Профиль формата : High@L4.1
Параметр CABAC формата : Да
Параметр ReFrames формата : 4 кадра
Идентификатор кодека : V_MPEG4/ISO/AVC
Продолжительность : 1 ч. 8 м.
Битрейт : 2500 Кбит/сек
Ширина : 1920 пикселей
Высота : 1040 пикселей
Соотношение сторон : 1,85:1
Режим частоты кадров : Постоянный
Частота кадров : 23,976 (24000/1001) кадра/сек
Частота кадров в оригинале : 23,976 (23976/1000) кадра/сек
Цветовое пространство : YUV
Субдискретизация насыщенности : 4:2:0
Битовая глубина : 8 бит
Тип развёртки : Прогрессивная
Бит/(Пиксели*Кадры) : 0.052
Размер потока : 1,18 Гбайт (79%)
Заголовок : Исходник: Blu-ray Disc | Автор рипа: Есмуханов Данияр Исламбекович | daniyar.esmuhanov
Библиотека кодирования : x264 core 123 r2189 35cf912
Настройки программы : cabac=1 / ref=4 / deblock=1:-1:-1 / analyse=0x3:0x133 / me=umh / subme=9 / psy=1 / psy_rd=1.00:0.15 / mixed_ref=1 / me_range=24 / chroma_me=1 / trellis=2 / 8x8dct=1 / cqm=0 / deadzone=21,11 / fast_pskip=0 / chroma_qp_offset=-3 / threads=48 / sliced_threads=0 / nr=0 / decimate=1 / interlaced=0 / bluray_compat=0 / constrained_intra=0 / bframes=3 / b_pyramid=2 / b_adapt=2 / b_bias=0 / direct=3 / weightb=1 / open_gop=0 / weightp=2 / keyint=250 / keyint_min=23 / scenecut=40 / intra_refresh=0 / rc_lookahead=60 / rc=2pass / mbtree=1 / bitrate=2467 / ratetol=1.0 / qcomp=0.60 / qpmin=0 / qpmax=69 / qpstep=4 / cplxblur=20.0 / qblur=0.5 / vbv_maxrate=31250 / vbv_bufsize=31250 / nal_hrd=none / ip_ratio=1.40 / aq=1:1.00
Язык : English
Default : Да
Forced : Да
Цветовой диапазон : Limited
Основные цвета : BT.709
Коэффициенты матрицы : BT.709

Аудио #1
Идентификатор : 2
Формат : AC-3
Формат/Информация : Audio Coding 3
Расширение режима : CM (complete main)
Параметр Endianness формата : Big
Идентификатор кодека : A_AC3
Продолжительность : 1 ч. 8 м.
Вид битрейта : Постоянный
Битрейт : 192 Кбит/сек
Каналы : 2 канала
Расположение каналов : Front: L R
Частота : 48,0 КГц
Частота кадров : 31,250 кадров/сек (1536 spf)
Битовая глубина : 16 бит
Метод сжатия : С потерями
Размер потока : 94,5 Мбайт (6%)
Заголовок : Профессиональный (полное дублирование)
Язык : Russian
Default : Да
Forced : Да

Аудио #2
Идентификатор : 3
Формат : AC-3
Формат/Информация : Audio Coding 3
Расширение режима : CM (complete main)
Параметр Endianness формата : Big
Идентификатор кодека : A_AC3
Продолжительность : 1 ч. 8 м.
Вид битрейта : Постоянный
Битрейт : 448 Кбит/сек
Каналы : 6 каналов
Расположение каналов : Front: L C R, Side: L R, LFE
Частота : 48,0 КГц
Частота кадров : 31,250 кадров/сек (1536 spf)
Битовая глубина : 16 бит
Метод сжатия : С потерями
Размер потока : 221 Мбайт (14%)
Язык : English
Default : Нет
Forced : Нет

Текст #1
Идентификатор : 4
Формат : UTF-8
Идентификатор кодека : S_TEXT/UTF8
Идентификатор кодека/Информация : UTF-8 Plain Text
Продолжительность : 59 м. 54 с.
Битрейт : 56 бит/сек
Count of elements : 485
Размер потока : 24,9 Кбайт (0%)
Язык : Russian
Default : Нет
Forced : Нет

Текст #2
Идентификатор : 5
Формат : UTF-8
Идентификатор кодека : S_TEXT/UTF8
Идентификатор кодека/Информация : UTF-8 Plain Text
Продолжительность : 59 м. 54 с.
Битрейт : 33 бит/сек
Count of elements : 656
Размер потока : 14,9 Кбайт (0%)
Язык : English
Default : Нет
Forced : Нет

Текст #3
Идентификатор : 6
Формат : UTF-8
Идентификатор кодека : S_TEXT/UTF8
Идентификатор кодека/Информация : UTF-8 Plain Text
Продолжительность : 59 м. 54 с.
Битрейт : 63 бит/сек
Count of elements : 866
Размер потока : 27,9 Кбайт (0%)
Язык : English
Default : Нет
Forced : Нет

Текст #4
Идентификатор : 7
Формат : UTF-8
Идентификатор кодека : S_TEXT/UTF8
Идентификатор кодека/Информация : UTF-8 Plain Text
Продолжительность : 59 м. 54 с.
Битрейт : 42 бит/сек
Count of elements : 866
Размер потока : 18,4 Кбайт (0%)
Язык : English
Default : Нет
Forced : Нет














Как качать, Как раздавать - Правила и инструкции
Торрент08 янв 2017, 22:12 [ 08 янв 2017, 22:12 ]

СКАЧАТЬ с просмотром рекламы
СтатусПроверен mersicc
.torrent скачан1 раз
Размер25.63 ГБ (27 517 435 832)
Скорость отдачи маленькая, поэтому стою на раздаче до появления 10-20 сидов, после - не возвращаюсь.
Просьба к скачавшим как можно дольше не покидать раздачу!


Ссылка на мой раздачи.

Почтовый ящик - daniyar.esmuhanov@gmail.com

klients

Созерцатель

 

Сообщения: 31

Зарегистрирован: 22 ноя 2013, 16:11

Карма: 0

Сообщение klients» 09 янв 2017, 18:06

смотрел этот мультфильм в далекие времена на кассете

real2016

Созерцатель

 

Сообщения: 2

Зарегистрирован: 28 фев 2016, 21:33

Карма: 0

Сообщение real2016» 10 янв 2017, 23:51

Отличный мульт от юниверсал, Сару и Питрика до сих пор помню первые 3 части зачёт


Вернуться в Зарубежные мультфильмы



Кто сейчас на конференции

Сейчас этот форум просматривают: нет зарегистрированных пользователей

Ресурс не предоставляет электронные версии произведений, а занимается лишь коллекционированием и каталогизацией ссылок, присылаемых и публикуемых на форуме нашими читателями. Если вы являетесь правообладателем какого-либо представленного материала и не желаете чтобы ссылка на него находилась в нашем каталоге, свяжитесь с нами и мы незамедлительно удалим её. Файлы для обмена на трекере предоставлены пользователями сайта, и администрация не несёт ответственности за их содержание. Просьба не заливать файлы, защищенные авторскими правами, а также файлы нелегального содержания!