Ван Гог. С любовью, Винсент / Loving Vincent [2017, Драма, криминал, биография, мультфильм, BDRip 720p | iTunes] - Скачать торрент бесплатно

Модераторы: Модераторы Фильмы, мультфильмы, Союз Риперов

Поделиться ВКонтакте Поделиться Facebook Поделиться Twitter Поделиться Mail.RU
АвторСообщение
volsem
Новинки кинематографа
Новинки кинематографа
 
Сообщения: 782
Зарегистрирован: 19 фев 2016, 20:53
Карма: 819
-2--2--2--2--2-

Сообщение volsem » 11 янв 2018, 15:54

Ван Гог. С любовью, Винсент / Loving Vincent [2017, Драма, криминал, биография, мультфильм, BDRip 720p | iTunes] - Скачать торрент

Информация о фильме
Название: Ван Гог. С любовью, Винсент
Оригинальное название: Loving Vincent
Год выпуска: 2017
Жанр: Драма, криминал, биография, мультфильм
Режиссер: Дорота Кобела, Хью Уэлшман
В ролях: Дуглас Бут, Сирша Ронан, Джером Флинн, Эйдан Тёрнер, Хелен МакКрори, Холли Эрл, Крис О`Дауд, Элинор Томлинсон, Робин Ходжес, Роберт Гулачик

О фильме: Первая в мире полнометражная анимация, каждый кадр которой – расписанное маслом полотно. 800 писем Ван Гога, более 120 его картин и их персонажей поведают о самых значимых людях и событиях в жизни художника, приведших к ее загадочному обрыву.



Страна: Великобритания, Польша
Студия: BreakThru Productions
Продолжительность: 01:34:43
Перевод: Дублированный | iTunes

Файл
Качество: BDRip 720p
Видео: AVC, 992x720, 2845 kbps
Звук: AC3, 6 ch, 384 kbps

Общее
Уникальный идентификатор : 236320949195311558948639740327337136730 (0xB1C9C25E7A7ABF7799892EB5DD7C125A)
Полное имя : D:\Релизы\Loving.Vincent.2017.720p.BluRay.x264-GECKOS.mkv
Формат : Matroska
Версия формата : Version 4 / Version 2
Размер файла : 2,13 Гбайт
Продолжительность : 1 ч. 34 м.
Общий поток : 3227 Кбит/сек
Дата кодирования : UTC 2018-01-11 09:34:22
Программа кодирования : mkvmerge v6.7.0 ('Back to the Ground') 64bit built on Jan 8 2014 15:10:52
Библиотека кодирования : libebml v1.3.0 + libmatroska v1.4.1

Видео
Идентификатор : 1
Формат : AVC
Формат/Информация : Advanced Video Codec
Профиль формата : High@L4.1
Параметр CABAC формата : Да
Параметр ReFrames формата : 5 кадров
Идентификатор кодека : V_MPEG4/ISO/AVC
Продолжительность : 1 ч. 34 м.
Битрейт : 2845 Кбит/сек
Ширина : 992 пикселя
Высота : 720 пикселей
Соотношение сторон : 1,378
Режим частоты кадров : Постоянный
Частота кадров : 23,976 кадра/сек
Цветовое пространство : YUV
Субдискретизация насыщенности : 4:2:0
Битовая глубина : 8 бит
Тип развёртки : Прогрессивная
Бит/(Пиксели*Кадры) : 0.166
Размер потока : 1,84 Гбайт (86%)
Библиотека кодирования : x264 core 152 r2851 ba24899
Настройки программы : cabac=1 / ref=5 / deblock=1:0:0 / analyse=0x3:0x133 / me=umh / subme=7 / psy=1 / psy_rd=1.00:0.00 / mixed_ref=1 / me_range=16 / chroma_me=1 / trellis=1 / 8x8dct=1 / cqm=0 / deadzone=21,11 / fast_pskip=0 / chroma_qp_offset=-2 / threads=22 / lookahead_threads=3 / sliced_threads=0 / nr=0 / decimate=1 / interlaced=0 / bluray_compat=0 / constrained_intra=0 / bframes=3 / b_pyramid=2 / b_adapt=1 / b_bias=0 / direct=1 / weightb=1 / open_gop=0 / weightp=2 / keyint=250 / keyint_min=23 / scenecut=40 / intra_refresh=0 / rc_lookahead=40 / rc=2pass / mbtree=1 / bitrate=2845 / ratetol=1.0 / qcomp=0.60 / qpmin=0 / qpmax=69 / qpstep=4 / cplxblur=20.0 / qblur=0.5 / ip_ratio=1.40 / aq=1:1.00
Язык : English
Default : Да
Forced : Нет

Аудио
Идентификатор : 2
Формат : AC-3
Формат/Информация : Audio Coding 3
Расширение режима : CM (complete main)
Параметр Endianness формата : Big
Идентификатор кодека : A_AC3
Продолжительность : 1 ч. 34 м.
Вид битрейта : Постоянный
Битрейт : 384 Кбит/сек
Каналы : 6 каналов
Расположение каналов : Front: L C R, Side: L R, LFE
Частота : 48,0 КГц
Метод сжатия : С потерями
Размер потока : 260 Мбайт (12%)
Язык : Russian
Default : Да
Forced : Нет

Как качать, Как раздавать - Правила и инструкции
Торрент11 янв 2018, 15:54 [ 11 янв 2018, 15:54 ]

СКАЧАТЬ с просмотром рекламы
СтатусПроверен
.torrent скачан1 раз
Размер2.13 ГБ (2 292 377 536)

Вернуться в Зарубежные мультфильмы



Кто сейчас на конференции

Сейчас этот форум просматривают: нет зарегистрированных пользователей

Ресурс не предоставляет электронные версии произведений, а занимается лишь коллекционированием и каталогизацией ссылок, присылаемых и публикуемых на форуме нашими читателями. Если вы являетесь правообладателем какого-либо представленного материала и не желаете чтобы ссылка на него находилась в нашем каталоге, свяжитесь с нами и мы незамедлительно удалим её. Файлы для обмена на трекере предоставлены пользователями сайта, и администрация не несёт ответственности за их содержание. Просьба не заливать файлы, защищенные авторскими правами, а также файлы нелегального содержания!