Чемпионат Испании 2017/18. 18-й тур. Обзор матчей [Футбол, 09.01.2018, HDTVRip (720p)] - Скачать торрент бесплатно

Футбол - игра всех времен и народов. Трансляции в записи. Любимые голы и спортивные матчи. Всем любителям футбола посвящается. cкачать торрент бесплатно без регистрации.

Модераторы: Кандидат в Союз Риперов, Модераторы ТВ-Шоу, документальные, спорт, Союз Риперов

Футбол - игра всех времен и народов. Трансляции в записи. Любимые голы и спортивные матчи. Всем любителям футбола посвящается. cкачать торрент бесплатно без регистрации.
Поделиться ВКонтакте Поделиться Facebook Поделиться Twitter Поделиться Mail.RU
АвторСообщение
sanchez89
Аватара пользователя
Модератор ТВ-ШОУ
Модератор ТВ-ШОУ
 
Сообщения: 930
Зарегистрирован: 24 авг 2012, 17:41
Откуда: с. Спасское, Бугульминский район, Татарстан, РФ
Карма: 172
-1-

Сообщение sanchez89 » 13 янв 2018, 00:24

Чемпионат Испании 2017/18. 18-й тур. Обзор матчей [Футбол, 09.01.2018, HDTVRip (720p)] - Скачать торрент

Название: Чемпионат Испании 2017/18. 18-й тур. Обзор матчей
Вид спорта: Футбол

Дата выхода: 09.01.2018
Продолжительность: 00:52:56
Комментаторы: Дмитрий Джулай
Язык комментариев: /
Перевод: Не требуется
Субтитры: Нет
Описание: Телеканал "Setanta Sports" предлагает обзор матчей 18-го тура Испанской футбольной Ла Лиги 2017/18.
Релиз группа:
Качество: HDTVRip (720p)
Формат файла: MKV
Видео кодек: x264
Аудио кодек: AC3
Видео: AVC, 1280x720 (16:9), 50.000 fps, 4028 kbps, 0.087 bit/pixel
Аудио: /: AC-3, 48 kHz, 2 ch, 128 kbps
MediaInfo: Общее
Уникальный идентификатор : 126220959439153089747895413290191229190 (0x5EF545C522F58364E0CDD71D586F1106)
Полное имя : D:\Torrent\Чемпионат Испании 2017-18. 18-й тур. Обзор HDTVRip 720p rgfootball.net.mkv
Формат : Matroska
Версия формата : Version 2
Размер файла : 1,62 Гбайт
Продолжительность : 52 м.
Общий поток : 4371 Кбит/сек
Программа кодирования : Lavf54.63.104
Библиотека кодирования : Lavf54.63.104 / Lavf54.63.104

Видео
Идентификатор : 1
Формат : AVC
Формат/Информация : Advanced Video Codec
Профиль формата : High@L3.2
Параметр CABAC формата : Да
Параметр ReFrames формата : 4 кадра
Параметр GOP формата : M=2, N=15
Идентификатор кодека : V_MPEG4/ISO/AVC
Продолжительность : 52 м.
Битрейт : 4028 Кбит/сек
Ширина : 1280 пикселей
Высота : 720 пикселей
Соотношение сторон : 16:9
Режим частоты кадров : Постоянный
Частота кадров : 50,000 кадров/сек
Цветовое пространство : YUV
Субдискретизация насыщенности : 4:2:0
Битовая глубина : 8 бит
Тип развёртки : Прогрессивная
Бит/(Пиксели*Кадры) : 0.087
Размер потока : 1,49 Гбайт (92%)
Default : Нет
Forced : Нет

Аудио #1
Идентификатор : 2
Формат : AC-3
Формат/Информация : Audio Coding 3
Расширение режима : CM (complete main)
Параметр Endianness формата : Big
Идентификатор кодека : A_AC3
Продолжительность : 52 м.
Вид битрейта : Постоянный
Битрейт : 128 Кбит/сек
Каналы : 2 канала
Расположение каналов : Front: L R
Частота : 48,0 КГц
Частота кадров : 31,250 кадров/сек (1536 spf)
Метод сжатия : С потерями
Размер потока : 48,5 Мбайт (3%)
Язык : Russian
Default : Да
Forced : Нет

Аудио #2
Идентификатор : 3
Формат : AC-3
Формат/Информация : Audio Coding 3
Расширение режима : CM (complete main)
Параметр Endianness формата : Big
Идентификатор кодека : A_AC3
Продолжительность : 52 м.
Вид битрейта : Постоянный
Битрейт : 128 Кбит/сек
Каналы : 2 канала
Расположение каналов : Front: L R
Частота : 48,0 КГц
Частота кадров : 31,250 кадров/сек (1536 spf)
Метод сжатия : С потерями
Размер потока : 48,5 Мбайт (3%)
Язык : English
Default : Нет
Forced : Нет

Как качать, Как раздавать - Правила и инструкции
Торрент13 янв 2018, 00:24 [ 13 янв 2018, 00:24 ]

СКАЧАТЬ с просмотром рекламы
СтатусПроверен
.torrent скачан46 раз
Размер1.62 ГБ (1 735 831 712)

Вернуться в Футбол



Кто сейчас на конференции

Сейчас этот форум просматривают: нет зарегистрированных пользователей

Ресурс не предоставляет электронные версии произведений, а занимается лишь коллекционированием и каталогизацией ссылок, присылаемых и публикуемых на форуме нашими читателями. Если вы являетесь правообладателем какого-либо представленного материала и не желаете чтобы ссылка на него находилась в нашем каталоге, свяжитесь с нами и мы незамедлительно удалим её. Файлы для обмена на трекере предоставлены пользователями сайта, и администрация не несёт ответственности за их содержание. Просьба не заливать файлы, защищенные авторскими правами, а также файлы нелегального содержания!