Тупик / Dead End [2003, Ужасы, Триллер, Комедия, Детектив , WEBRip-AVC] - Скачать торрент бесплатно

Модераторы: Модераторы Фильмы, мультфильмы, Союз Риперов

Поделиться ВКонтакте Поделиться Facebook Поделиться Twitter Поделиться Mail.RU
АвторСообщение
ZUBDOLGOPA
Аватара пользователя
Модератор Фильмов
Модератор Фильмов
 
Сообщения: 303
Зарегистрирован: 27 мар 2012, 12:20
Откуда: Моск.обл Долгопрудный
Карма: 211
-2--2-

Сообщение ZUBDOLGOPA » 13 янв 2018, 03:42

Тупик / Dead End [2003, Ужасы, Триллер, Комедия, Детектив , WEBRip-AVC] - Скачать торрент

Информация о фильме
Название: Тупик
Оригинальное название: Dead End
Год выхода: 2003
Жанр: Ужасы, Триллер, Комедия, Детектив
Режиссер: Жан-Баптист Андреа, Фабрис Канепа
В ролях: Рэй Уайз, Лин Шэй, Мик Кэйн, Александра Холден, Билли Эшер, Эмбер Смит, Шарон Мэдден, Стив Валентайн, Джимми Ф. Скэггз.

О фильме :
Все последние 20 лет Фрэнк отвозил семью на Рождество к своей теще и всегда ездил одной и той же дорогой. На этот раз он решил сократить путь, проехав через лес. И совершенно напрасно… По лесу бродит таинственная женщина в белом, сеющая смерть. Ужасный черный автомобиль с невидимым шофером увозит жертвы в ночную тьму. На каждом дорожном знаке указан пункт назначения, которого невозможно достичь. Те же, кому посчастливится выжить, уже никогда и ничего не смогут рассказать о том, что произошло с ними в эту Рождественскую ночь…




Страна: США, Франция
Студия: Captain Movies, Sagittaire Films
Продолжительность: 01:23:19
Перевод: Профессиональный (многоголосный, закадровый)

Файл
Формат: MKV
Качество: WEBRip-AVC
Видео: MPEG-4 AVC, 768x412, ~ 1174 Кбит/с
Аудио: AAC-LC, 2 ch, ~ 76 Кбит/с
Субтитры: Нет
Общее
Уникальный идентификатор : 249005822496700127468784802447320248199 (0xBB54C6E8A40AE3F581F89EF3A3916F87)
Полное имя : D:MOVIESDead End.2003.ExKinoRay.mkv
Формат : Matroska
Версия формата : Version 4 / Version 2
Размер файла : 746 Мбайт
Продолжительность : 1 ч. 23 м.
Общий поток : 1252 Кбит/сек
Дата кодирования : UTC 2018-01-12 19:59:49
Программа кодирования : mkvmerge v15.0.0 ('Duel with the Devil') 64-bit
Библиотека кодирования : libebml v1.3.5 + libmatroska v1.4.5

Видео
Идентификатор : 1
Формат : AVC
Формат/Информация : Advanced Video Codec
Профиль формата : High@L4.1
Параметр CABAC формата : Да
Параметр RefFrames формата : 10 кадров
Идентификатор кодека : V_MPEG4/ISO/AVC
Продолжительность : 1 ч. 23 м.
Битрейт : 1174 Кбит/сек
Ширина : 768 пикселей
Высота : 412 пикселей
Соотношение сторон : 1,85:1
Режим частоты кадров : Постоянный
Частота кадров : 29,970 (29970/1000) кадров/сек
Частота кадров в оригинале : 29,970 (30000/1001) кадров/сек
Цветовое пространство : YUV
Субдискретизация насыщенности : 4:2:0
Битовая глубина : 8 бит
Тип развёртки : Прогрессивная
Бит/(Пиксели*Кадры) : 0.124
Размер потока : 699 Мбайт (94%)
Библиотека кодирования : x264 core 152 r2851kMod ba24899
Настройки программы : cabac=1 / ref=10 / deblock=1:-3:-3 / analyse=0x3:0x133 / me=umh / subme=11 / psy=1 / fade_compensate=0.00 / psy_rd=1.05:0.10 / mixed_ref=1 / me_range=32 / chroma_me=1 / trellis=2 / 8x8dct=1 / cqm=0 / deadzone=21,11 / fast_pskip=0 / chroma_qp_offset=-3 / threads=6 / lookahead_threads=1 / sliced_threads=0 / nr=0 / decimate=0 / interlaced=0 / bluray_compat=0 / constrained_intra=0 / bframes=10 / b_pyramid=2 / b_adapt=2 / b_bias=0 / direct=3 / weightb=1 / open_gop=0 / weightp=2 / keyint=300 / keyint_min=29 / scenecut=40 / intra_refresh=0 / rc_lookahead=40 / rc=2pass / mbtree=1 / bitrate=1174 / ratetol=1.0 / qcomp=0.60 / qpmin=0 / qpmax=69 / qpstep=4 / cplxblur=20.0 / qblur=0.5 / vbv_maxrate=50000 / vbv_bufsize=62500 / nal_hrd=none / filler=0 / ip_ratio=1.40 / aq=3:1.00
Default : Да
Forced : Нет

Аудио
Идентификатор : 2
Формат : AAC
Формат/Информация : Advanced Audio Codec
Профиль формата : LC
Идентификатор кодека : A_AAC
Продолжительность : 1 ч. 23 м.
Битрейт : 76,0 Кбит/сек
Каналы : 2 канала
Расположение каналов : Front: L R
Частота : 48,0 КГц
Частота кадров : 46,875 кадров/сек (1024 SPF)
Метод сжатия : С потерями
Задержка видео : 9 мс.
Размер потока : 45,3 Мбайт (6%)
Язык : Russian
Default : Да
Forced : Нет





Релиз от:
Как качать, Как раздавать - Правила и инструкции
Торрент13 янв 2018, 03:42 [ 13 янв 2018, 03:42 ]

СКАЧАТЬ с просмотром рекламы
СтатусПроверен
.torrent скачан0 раз
Размер746.03 МБ (782 270 175)
#777

olvarus

Новичок

 

Сообщения: 37

Зарегистрирован: 27 апр 2012, 18:21

Карма: 9

Сообщение olvarus» 13 янв 2018, 12:42

Прикольный фильм! :D *колбасня *круто *круто


Вернуться в Зарубежные фильмы после 2000го года...



Кто сейчас на конференции

Сейчас этот форум просматривают: нет зарегистрированных пользователей

Ресурс не предоставляет электронные версии произведений, а занимается лишь коллекционированием и каталогизацией ссылок, присылаемых и публикуемых на форуме нашими читателями. Если вы являетесь правообладателем какого-либо представленного материала и не желаете чтобы ссылка на него находилась в нашем каталоге, свяжитесь с нами и мы незамедлительно удалим её. Файлы для обмена на трекере предоставлены пользователями сайта, и администрация не несёт ответственности за их содержание. Просьба не заливать файлы, защищенные авторскими правами, а также файлы нелегального содержания!