Грабители [2017, Драма, криминал, WEB-DL 1080p] - Скачать торрент бесплатно

Модераторы: Модераторы Фильмы, мультфильмы, Союз Риперов

Поделиться ВКонтакте Поделиться Facebook Поделиться Twitter Поделиться Mail.RU
АвторСообщение
volsem
Аватара пользователя
Модератор Фильмов
Модератор Фильмов
 
Раздал: 2.68 ПБ
Скачал: 1.04 ПБ
Ратио: 2002.570
Сообщения: 2013
Зарегистрирован: 19 фев 2016, 20:53
Награды: 32
За 100 сообщений (1) За 500 сообщений (1) За 1000 сообщений (1) За 1500 сообщений (1) 5 Тб отданного (1) 10 Тб отданного (1) 15 Тб отданного (1) 20 Тб отданного (1) 30 Тб отданного (1) 10 Тб скаченного (1) 15 Тб скаченного (1) 20 Тб скаченного (1) 30 Тб скаченного (1) 50 Тб скаченного (1) Размер созданных раздач 3 Тб (1) Размер созданных раздач 5 Тб (1) 250 релизов (1) 500 релизов (1) 1000 релизов (1) 1500 релизов (1) За новинки фильмов (1) За новинки книг (1) 2-е место (1) За 2000 полученных спасибо (1) За 4000 полученных спасибо (1) За 8000 полученных спасибо (1) За 10000 полученных спасибо (1) За 15000 полученных спасибо (1) 200 кармы (1) 500 кармы (1) 1000 кармы (1) Халява №3 (1)
Карма: 1810
-2--2--2--2--2--2--2--2--2--2-

Сообщение volsem » 10 июл 2018, 11:08

Грабители [2017, Драма, криминал, WEB-DL 1080p] - Скачать торрент

Грабители

Год выхода: 2017
Производство: Россия / Saga.Rush Cinema
Жанр: Драма, криминал

Режиссер: Red Ray, Семен Напольских
Актеры: Red Ray, Мария Манькова, Филипп Усов, Вадим Грибов, Виктор Тарбазанов

Описание:
Сюжет повествует о двух давних друзьях, Реде и Филе, которые зарабатывают на жизнь незаконным путем — угоняют дорогие тачки. Но однажды Фил садится за карточный стол с криминальным авторитетом. Ред решает помочь другу и, чтобы выплатить долг, идет на большой риск, связываясь с опасными людьми. С этого момента жизнь парней резко меняется.

Продолжительность: 01:09:37
Перевод: Не требуется
Субтитры: Отсутствуют

Качество: WEB-DL 1080p
Видео: H.264/AVC, 1920x802, ~4444 Kbps
Аудио: AC-3, 48.0 KHz, 2 ch, 192 Kbps
Общее
Уникальный идентификатор : 189808583474922304620262314264133098860 (0x8ECBCDAFA8F0B7DA839DDAF3E35BDD6C)
Полное имя : E:\NNM\Грабители\Grabiteli 2017 WEB-DL 1080p-LQ.mkv
Формат : Matroska
Версия формата : Version 4 / Version 2
Размер файла : 2,30 Гбайт
Продолжительность : 1 ч. 9 м.
Общий поток : 4731 Кбит/сек
Дата кодирования : UTC 2018-07-10 05:18:20
Программа кодирования : mkvmerge v6.9.1 ('Blue Panther') 32bit built on Apr 18 2014 18:15:44
Библиотека кодирования : libebml v1.3.0 + libmatroska v1.4.1

Видео
Идентификатор : 1
Формат : AVC
Формат/Информация : Advanced Video Codec
Профиль формата : High@L4
Настройки формата : CABAC / 5 Ref Frames
Параметр CABAC формата : Да
Параметр RefFrames формата : 5 кадров
Идентификатор кодека : V_MPEG4/ISO/AVC
Продолжительность : 1 ч. 9 м.
Битрейт : 4444 Кбит/сек
Ширина : 1920 пикселей
Высота : 802 пикселя
Соотношение сторон : 2,40:1
Режим частоты кадров : Постоянный
Частота кадров : 25,000 кадров/сек
Цветовое пространство : YUV
Субдискретизация насыщенности : 4:2:0
Битовая глубина : 8 бит
Тип развёртки : Прогрессивная
Бит/(Пиксели*Кадры) : 0.115
Размер потока : 2,16 Гбайт (94%)
Язык : English
Default : Да
Forced : Нет
Цветовой диапазон : Limited
Основные цвета : BT.709
Характеристики трансфера : BT.709
Коэффициенты матрицы : BT.709

Аудио
Идентификатор : 2
Формат : AC-3
Формат/Информация : Audio Coding 3
Идентификатор кодека : A_AC3
Продолжительность : 1 ч. 9 м.
Вид битрейта : Постоянный
Битрейт : 192 Кбит/сек
Каналы : 2 канала
Расположение каналов : Front: L R
Частота : 48,0 КГц
Частота кадров : 31,250 кадров/сек (1536 SPF)
Битовая глубина : 16 бит
Метод сжатия : С потерями
Задержка видео : -40 мс.
Размер потока : 95,6 Мбайт (4%)
Язык : Russian
ServiceKind/String : Complete Main
Default : Да
Forced : Нет

Меню
00:00:00.000 : en:Глава 1
00:06:07.840 : en:Глава 2
00:12:33.400 : en:Глава 3
00:18:22.000 : en:Глава 4
00:23:07.640 : en:Глава 5
00:27:50.760 : en:Глава 6
00:32:39.800 : en:Глава 7
00:39:02.600 : en:Глава 8
00:45:05.480 : en:Глава 9
00:52:19.600 : en:Глава 10
00:57:50.920 : en:Глава 11
01:02:47.600 : en:Глава 12
Как качать, Как раздавать - Правила и инструкции
Торрент10 июл 2018, 11:08 [ 10 июл 2018, 11:08 ]

СКАЧАТЬ с просмотром рекламы
СтатусПроверен
.torrent скачан4 раз
Размер2.3 ГБ (2 470 514 867)

gurutibet


Старейшина
Старейшина
  Предупреждений: 1

Сообщения: 1502

Зарегистрирован: 28 ноя 2015, 18:04

Откуда: СССР

Награды: 8
За 100 сообщений (1) За 500 сообщений (1) За 1000 сообщений (1) За 1500 сообщений (1) 200 кармы (1) 500 кармы (1) 1000 кармы (1) Халява №2 (1)

Предупреждения: 1

Карма: 2587
-2--2--2--2--2--2--2--2--2--2-

Сообщение gurutibet» 10 июл 2018, 17:02

чай про фуфелов,надо шлянуть :D


Вернуться в Российские фильмы



Кто сейчас на конференции

Сейчас этот форум просматривают: nikolaimatweew

Ресурс не предоставляет электронные версии произведений, а занимается лишь коллекционированием и каталогизацией ссылок, присылаемых и публикуемых на форуме нашими читателями. Если вы являетесь правообладателем какого-либо представленного материала и не желаете чтобы ссылка на него находилась в нашем каталоге, свяжитесь с нами и мы незамедлительно удалим её. Файлы для обмена на трекере предоставлены пользователями сайта, и администрация не несёт ответственности за их содержание. Просьба не заливать файлы, защищенные авторскими правами, а также файлы нелегального содержания!