Сергей Скачков и группа «Земляне» - Концерт в Виллози [15.09] (2018) CAMRip 720p - Скачать торрент бесплатно

Концерты и видеоклипы в HD качестве!

Модераторы: Модераторы Музыки, Союз Риперов

Поделиться ВКонтакте Поделиться Facebook Поделиться Twitter Поделиться Mail.RU
АвторСообщение
Гриф-L
Аватара пользователя
Тоp Releaser
Тоp Releaser
 
Раздал: 1.29 ТБ
Скачал: 30.44 ГБ
Ратио: 43.504
Сообщения: 472
Зарегистрирован: 22 дек 2015, 03:59
Награды: 5
За 100 сообщений (1) За 2000 полученных спасибо (1) За 4000 полученных спасибо (1) 200 кармы (1) Халява №3 (1)
Карма: 257
-2--2-

Сообщение Гриф-L » 21 сен 2018, 07:09

Сергей Скачков и группа «Земляне» - Концерт в Виллози [15.09] (2018) CAMRip 720p - Скачать торрент

Исполнитель/Группа: Сергей Скачков и группа «Земляне»
Жанр: Rock
Год выпуска: 2018
Продолжительность: 00:55:25




Формат: MKV
Качество: CAMRip 720p
Видео кодек: H.264
Аудио кодек: AAC
Видео: H.264, ~4 600 Kbps, 1280 x 720 (16:9), 25 fps
Аудио: AAC, 48000Hz, 2ch, 192 kbps
1.Каскадеры
2.Прости Земля
3.Маленький кораблик
4.Взлетная полоса
5.Поверь в мечту
6.Красный конь
7.Путь домой
8.Трава у дома
9.Have you ever seen the rain
Complete name : D:Skachkov_15.09.18.mkv
Format : Matroska
Format version : Version 4 / Version 2
File size : 1.86 GiB
Duration : 55 min 29 s
Overall bit rate : 4 806 kb/s
Encoded date : UTC 2018-09-20 21:14:25
Writing application : mkvmerge v8.3.0 ('Over the Horizon') 64bit
Writing library : libebml v1.3.1 + libmatroska v1.4.2

Video
ID : 1
Format : AVC
Format/Info : Advanced Video Codec
Format profile : Main@L4.1
Format settings, CABAC : Yes
Format settings, ReFrames : 4 frames
Codec ID : V_MPEG4/ISO/AVC
Duration : 55 min 29 s
Bit rate : 4 614 kb/s
Width : 1 280 pixels
Height : 720 pixels
Display aspect ratio : 16:9
Frame rate mode : Constant
Frame rate : 25.000 FPS
Standard : PAL
Color space : YUV
Chroma subsampling : 4:2:0
Bit depth : 8 bits
Scan type : Progressive
Bits/(Pixel*Frame) : 0.200
Stream size : 1.79 GiB (96%)
Language : English
Default : Yes
Forced : No
Color range : Limited
Color primaries : BT.709
Transfer characteristics : BT.709
Matrix coefficients : BT.709

Audio
ID : 2
Format : AAC
Format/Info : Advanced Audio Codec
Format profile : LC
Codec ID : A_AAC
Duration : 55 min 29 s
Bit rate : 192 kb/s
Channel(s) : 2 channels
Channel positions : Front: L R
Sampling rate : 48.0 kHz
Frame rate : 46.875 FPS (1024 spf)
Compression mode : Lossy
Stream size : 75.2 MiB (4%)
Language : English
Default : Yes
Forced : No

Как качать, Как раздавать - Правила и инструкции
Торрент21 сен 2018, 07:09 [ 21 сен 2018, 07:09 ]

СКАЧАТЬ с просмотром рекламы
СтатусПроверен MR_LARRY
.torrent скачан52 раз
Размер1.86 ГБ (2 000 057 752)

Вернуться в HD Видео



Кто сейчас на конференции

Сейчас этот форум просматривают: нет зарегистрированных пользователей

Ресурс не предоставляет электронные версии произведений, а занимается лишь коллекционированием и каталогизацией ссылок, присылаемых и публикуемых на форуме нашими читателями. Если вы являетесь правообладателем какого-либо представленного материала и не желаете чтобы ссылка на него находилась в нашем каталоге, свяжитесь с нами и мы незамедлительно удалим её. Файлы для обмена на трекере предоставлены пользователями сайта, и администрация не несёт ответственности за их содержание. Просьба не заливать файлы, защищенные авторскими правами, а также файлы нелегального содержания!