Простоквашино: Возвращение в Простоквашино (Серия 7 из 30) [2018, мультфильм, семейный, WEB-DLRip 1080р] - Скачать торрент бесплатно

Модераторы: Модераторы Фильмы, мультфильмы, Союз Риперов

Поделиться ВКонтакте Поделиться Facebook Поделиться Twitter Поделиться Mail.RU
АвторСообщение
VLAD71
Аватара пользователя
Новичок
Новичок
 
Раздал: 134.51 ТБ
Скачал: 37.84 ТБ
Ратио: 548.225
Сообщения: 43
Зарегистрирован: 17 дек 2017, 05:16
Карма: 28

Сообщение VLAD71 » 10 окт 2018, 09:22

Простоквашино: Возвращение в Простоквашино (Серия 7 из 30) [2018, мультфильм, семейный, WEB-DLRip 1080р] - Скачать торрент

Название: Простоквашино: Возвращение в Простоквашино
Год выхода: 2018
Жанр: Мультфильм, семейный

Режиссер: Михаил Солошенко

Роли озвучивали: Антон Табаков, Юлия Меньшова, Иван Охлобыстин, Гарик Сукачёв, Алексей Онежен

О мультфильме: Казалось, никакие бури внешнего мира не смогут поколебать привычный и размеренный ход деревенской жизни Простоквашино. Время как будто застыло. Все так же каждое утро Матроскин дегустирует свежее молоко, полученное от своей любимицы — коровы Мурки. Все так же Шарик проводит время в окрестных лесах, «фотоохотясь» на редкую дичь. Правда, теперь он научился выкладывать фотографии своей добычи в интернет. И все так же, при каждой возможности, их навещает Дядя Федор. И тогда они весело и дружно проводят время своей мужской компанией. И когда им уже стало казаться, что так будет всегда, внезапно все изменилось с появлением одной маленькой девочки, родной сестры Дяди Фёдора. И имя этой девочки — Вера Павловна.



Производство: Россия / Союзмультфильм
Продолжительность: 00:06:30
Перевод: Не требуется
Субтитры: Отсутствуют

Файл
Формат: MKV
Качество: WEB-DLRip 1080р

Видео: MPEG-4 AVC, 5000 Кбит/с, 1920x1080
Аудио: 48 kHz, AC3 Dolby Digital, 2/0 (L,R) ch, ~192 kbps


Общее
Уникальный идентификатор : 1379126546852033546695472725187831755 (0x1099C30423534F95FF9EB5B19B327CB)
Полное имя : Простоквашино Возвращение в Простоквашино 7-я серия-Гены героя.mkv
Формат : Matroska
Версия формата : Version 2
Размер файла : 242 Мбайт
Продолжительность : 6 м. 30 с.
Общий поток : 5198 Кбит/сек
Программа кодирования : Lavf54.63.104
Библиотека кодирования : Lavf54.63.104

Видео
Идентификатор : 1
Формат : AVC
Формат/Информация : Advanced Video Codec
Профиль формата : Main@L4
Настройки формата : CABAC / 1 Ref Frames
Параметр CABAC формата : Да
Параметр RefFrames формата : 1 кадр
Идентификатор кодека : V_MPEG4/ISO/AVC
Продолжительность : 6 м. 30 с.
Битрейт : 5000 Кбит/сек
Ширина : 1920 пикселей
Высота : 1080 пикселей
Соотношение сторон : 16:9
Режим частоты кадров : Постоянный
Частота кадров : 25,000 кадров/сек
Цветовое пространство : YUV
Субдискретизация насыщенности : 4:2:0
Битовая глубина : 8 бит
Тип развёртки : Прогрессивная
Бит/(Пиксели*Кадры) : 0.096
Размер потока : 228 Мбайт (94%)
Библиотека кодирования : x264 core 129
Настройки программы : cabac=1 / ref=1 / deblock=1:0:0 / analyse=0x1:0x131 / me=dia / subme=2 / psy=1 / psy_rd=1.00:0.00 / mixed_ref=0 / me_range=16 / chroma_me=1 / trellis=0 / 8x8dct=0 / cqm=0 / deadzone=21,11 / fast_pskip=1 / chroma_qp_offset=0 / threads=2 / lookahead_threads=1 / sliced_threads=0 / nr=0 / decimate=1 / interlaced=0 / bluray_compat=0 / constrained_intra=0 / bframes=0 / weightp=2 / keyint=250 / keyint_min=25 / scenecut=40 / intra_refresh=0 / rc_lookahead=40 / rc=abr / mbtree=1 / bitrate=5000 / ratetol=1.0 / qcomp=0.60 / qpmin=10 / qpmax=51 / qpstep=4 / ip_ratio=1.41 / aq=1:1.00
Default : Да
Forced : Нет

Аудио
Идентификатор : 2
Формат : AC-3
Формат/Информация : Audio Coding 3
Коммерческое название : Dolby Digital
Идентификатор кодека : A_AC3
Продолжительность : 6 м. 30 с.
Вид битрейта : Постоянный
Битрейт : 192 Кбит/сек
Каналы : 2 канала
Channel layout : L R
Частота : 48,0 КГц
Частота кадров : 31,250 кадров/сек (1536 SPF)
Битовая глубина : 16 бит
Метод сжатия : С потерями
Размер потока : 8,93 Мбайт (4%)
Default : Да
Forced : Нет
Данный торрент является блокированным, причина: поглощённый торрент
Как качать, Как раздавать - Правила и инструкции
Торрент10 окт 2018, 09:22 [ 10 окт 2018, 09:22 ]

СКАЧАТЬ с просмотром рекламы
СтатусПоглощён Zakol
.torrent скачан1 раз
Размер241.72 МБ (253 462 148)

Zakol

Аватара пользователя
Супермодератор
Супермодератор
 

Сообщения: 8607

Зарегистрирован: 11 июн 2016, 20:15

Откуда: В сетке пишут, что Амстердам! )))

Награды: 39
За 100 сообщений (1) За 500 сообщений (1) За 1000 сообщений (1) За 1500 сообщений (1) За 2000 сообщений (1) За 3000 сообщений (1) 5 Тб отданного (1) 10 Тб отданного (1) 15 Тб отданного (1) 20 Тб отданного (1) 30 Тб отданного (1) 10 Тб скаченного (1) 15 Тб скаченного (1) 20 Тб скаченного (1) 30 Тб скаченного (1) 50 Тб скаченного (1) Размер созданных раздач 3 Тб (1) Размер созданных раздач 5 Тб (1) Размер созданных раздач 10 Тб (1) Размер созданных раздач 15 Тб (1) 250 релизов (1) 500 релизов (1) 1000 релизов (1) 1500 релизов (1) 2000 релизов (1) 3000 релизов (1) 5000 релизов (1) За новинки фильмов (1) За новинки ТВ-Шоу (1) За 2000 полученных спасибо (1) За 4000 полученных спасибо (1) За 8000 полученных спасибо (1) За 10000 полученных спасибо (1) За 15000 полученных спасибо (1) 30 рипов (1) 50 рипов (1) 100 рипов (1) 200 кармы (1) 500 кармы (1)
Карма: 1124
-2--2--2--2--2--2-

Сообщение Zakol» 10 окт 2018, 22:55

Помните, что всё в жизни относительно: если в одном месте Вас послали, то в другом - ждут с нетерпением! ;-)


Вернуться в Российские мультфильмы



Кто сейчас на конференции

Сейчас этот форум просматривают: нет зарегистрированных пользователей

Ресурс не предоставляет электронные версии произведений, а занимается лишь коллекционированием и каталогизацией ссылок, присылаемых и публикуемых на форуме нашими читателями. Если вы являетесь правообладателем какого-либо представленного материала и не желаете чтобы ссылка на него находилась в нашем каталоге, свяжитесь с нами и мы незамедлительно удалим её. Файлы для обмена на трекере предоставлены пользователями сайта, и администрация не несёт ответственности за их содержание. Просьба не заливать файлы, защищенные авторскими правами, а также файлы нелегального содержания!