Гарфилд 2: История двух кошечек / Garfield: A Tail of Two Kitties [2006, фэнтези, комедия, семейный, BDRip 1080р] - Скачать торрент бесплатно

Модераторы: Модераторы Фильмы, мультфильмы, Союз Риперов

Поделиться ВКонтакте Поделиться Facebook Поделиться Twitter Поделиться Mail.RU
АвторСообщение
Download more
Аватара пользователя
Модератор Фильмов
Модератор Фильмов
 
Раздал: 56.69 ТБ
Скачал: 19.06 ТБ
Ратио: 489.222
Сообщения: 936
Зарегистрирован: 19 ноя 2016, 16:36
Откуда: г. Астана, Казахстан Рипер: daniyar.esmuhanov Есмуханов Данияр Исламбекович
Награды: 18
За 100 сообщений (1) За 500 сообщений (1) 5 Тб отданного (1) 10 Тб отданного (1) 15 Тб отданного (1) 20 Тб отданного (1) 30 Тб отданного (1) 10 Тб скаченного (1) 250 релизов (1) 500 релизов (1) За 2000 полученных спасибо (1) За 4000 полученных спасибо (1) 30 рипов (1) 50 рипов (1) 200 кармы (1) 500 кармы (1) 1000 кармы (1) Халява №3 (1)
Карма: 1112
-2--2--2--2--2--2-

Сообщение Download more » 12 окт 2018, 14:41

Гарфилд 2: История двух кошечек / Garfield: A Tail of Two Kitties [2006, фэнтези, комедия, семейный, BDRip 1080р] - Скачать торрент

Название: Гарфилд 2: История двух кошечек
Оригинальное название: Garfield: A Tail of Two Kitties
Год выхода: 2006
Жанр: фэнтези, комедия, семейный
Режиссер: Тим Хилл
В ролях: Брекин Мейер, Дженнифер Лав Хьюитт, Билли Коннолли, Билл Мюррэй, Йен Эберкромби, Роджер Рис, Люси Дэвис, Лена Кардвэлл, Вероника Алисино, Джейн Карр

В дубляже Гарфилда озвучивает Олег Табаков.

О фильме: Любимец всей Америки кот Гарфилд пересекает океан с целью преподнести сюрприз своему хозяину Джону Арбаклу, отправившемуся в Лондон, чтобы сделать предложение своей возлюбленной, ветеринару Лиз Уилсон. Очутившись в Англии, Гарфилд случайно меняется местами со своим двойником — котом Принцем, принадлежащим королевской семье.



Выпущено: Великобритания, США
Продолжительность: 01:25:48
Озвучивание: Профессиональный (полное дублирование)
Субтитры: русские, английские

Rip by Есмуханов Данияр Исламбекович | daniyar.esmuhanov

Файл
Формат: MKV
Качество: BDRip 1080р
Видео:1920x1040, MPEG4/AVC, High@L4.1, 23,976 (24000/1001) кадра/сек, ~3996 Кбит/сек
Аудио:48,0 КГц, AC3 Dolby Digital, 3/2 (L,C,R,l,r) + LFE ch, 448 kbps Профессиональный (полное дублирование) CPIG | 2006 год
Аудио:48,0 КГц, AC3 Dolby Digital, 3/2 (L,C,R,l,r) + LFE ch, 448 kbps Оригинальная аудиодорожка: английский
Общее
Уникальный идентификатор : 239468051731296276700225248433112362605 (0xB427DE80F6D5C608A0DD9F62C3D02E6D)
Полное имя : D:\Данияр\Раздача\Garfield A Tail of Two Kitties.daniyar.esmuhanov\Гарфилд 2 История двух кошечек (фэнтези, комедия, семейный) 2006.mkv
Формат : Matroska
Версия формата : Version 4
Размер файла : 2,33 Гбайт
Продолжительность : 1 ч. 25 м.
Название фильма : Исходник: Blu-ray Disc | Автор рипа: Есмуханов Данияр Исламбекович | daniyar.esmuhanov
Программа кодирования : mkvmerge v8.3.0 ('Over the Horizon') 64bit
Библиотека кодирования : libebml v1.3.1 + libmatroska v1.4.2
Обложка : Yes
Attachments : Cover.jpg

Видео
Идентификатор : 1
Формат : AVC
Формат/Информация : Advanced Video Codec
Профиль формата : High@L4.1
Настройки формата : CABAC / 3 Ref Frames
Параметр CABAC формата : Да
Параметр RefFrames формата : 3 кадра
Параметр GOP формата : M=3, N=24
Идентификатор кодека : V_MPEG4/ISO/AVC
Продолжительность : 1 ч. 25 м.
Вид битрейта : Переменный
Переменный битрейт : 62,5 Мбит/сек | 2996 Кбит/сек | 3996 Кбит/сек
Битрейт : 3996 Кбит/сек
Ширина : 1920 пикселей
Высота : 1040 пикселей
Соотношение сторон : 1,85:1
Режим частоты кадров : Постоянный
Частота кадров : 23,976 (24000/1001) кадра/сек
Цветовое пространство : YUV
Субдискретизация насыщенности : 4:2:0
Битовая глубина : 8 бит
Тип развёртки : Прогрессивная
Бит/(Пиксели*Кадры) : 0.063
Размер потока : 1,80 Гбайт (77%)
Заголовок : Исходник: Blu-ray Disc | Автор рипа: Есмуханов Данияр Исламбекович | daniyar.esmuhanov
Язык : English
Default : Да
Forced : Да
Цветовой диапазон : Limited
Основные цвета : BT.709
Характеристики трансфера : BT.709
Коэффициенты матрицы : BT.709

Аудио #1
Идентификатор : 2
Формат : AC-3
Формат/Информация : Audio Coding 3
Коммерческое название : Dolby Digital
Идентификатор кодека : A_AC3
Продолжительность : 1 ч. 25 м.
Вид битрейта : Постоянный
Битрейт : 448 Кбит/сек
Каналы : 6 каналов
Channel layout : L R C LFE Ls Rs
Частота : 48,0 КГц
Частота кадров : 31,250 кадров/сек (1536 SPF)
Битовая глубина : 16 бит
Метод сжатия : С потерями
Задержка видео : -42 мс.
Размер потока : 275 Мбайт (12%)
Заголовок : Профессиональный (полное дублирование) CPIG | 2006 год
Язык : Russian
ServiceKind/String : Complete Main
Default : Да
Forced : Да

Аудио #2
Идентификатор : 3
Формат : AC-3
Формат/Информация : Audio Coding 3
Коммерческое название : Dolby Digital
Идентификатор кодека : A_AC3
Продолжительность : 1 ч. 25 м.
Вид битрейта : Постоянный
Битрейт : 448 Кбит/сек
Каналы : 6 каналов
Channel layout : L R C LFE Ls Rs
Частота : 48,0 КГц
Частота кадров : 31,250 кадров/сек (1536 SPF)
Битовая глубина : 16 бит
Метод сжатия : С потерями
Задержка видео : -42 мс.
Размер потока : 275 Мбайт (12%)
Язык : English
ServiceKind/String : Complete Main
Default : Нет
Forced : Нет

Текст #1
Идентификатор : 4
Формат : UTF-8
Идентификатор кодека : S_TEXT/UTF8
Идентификатор кодека/Информация : UTF-8 Plain Text
Продолжительность : 1 ч. 24 м.
Битрейт : 106 бит/сек
ElementCount : 976
Размер потока : 66,0 Кбайт (0%)
Язык : Russian
Default : Нет
Forced : Нет

Текст #2
Идентификатор : 5
Формат : UTF-8
Идентификатор кодека : S_TEXT/UTF8
Идентификатор кодека/Информация : UTF-8 Plain Text
Продолжительность : 1 ч. 23 м.
Битрейт : 69 бит/сек
ElementCount : 1111
Размер потока : 42,5 Кбайт (0%)
Язык : English
Default : Нет
Forced : Нет

Меню
00:00:00.000 : en:Main Titles
00:01:48.316 : en:Pampered Personages
00:05:17.775 : en:Liz's News
00:07:30.116 : en:The Cat & the Kennel
00:09:31.779 : en:Lady Eleanor's Will
00:14:16.355 : en:Bon Voyage!
00:15:24.506 : en:London
00:18:15.344 : en:Life Without Prince
00:21:58.483 : en:Busting Out
00:24:16.538 : en:The Replacement Prince
00:27:01.995 : en:Dargis' Plan
00:29:13.251 : en:Back at the Palace
00:33:17.745 : en:Call Me Your Highness
00:35:47.895 : en:Movin' On Up!
00:36:57.048 : en:Look Who's Back
00:39:45.216 : en:The Party Prince
00:41:31.614 : en:Operation Feline Protection
00:44:31.293 : en:The Royal Lasagna
00:50:15.595 : en:Destiny Calls!
00:52:26.726 : en:Pool Party Animals
00:57:34.284 : en:My Crummiest Moment
00:59:48.001 : en:To Skin a Royal Cat
01:03:53.079 : en:Our Only Hope
01:04:59.353 : en:Face-To-Face
01:07:43.350 : en:The Game's Afoot
01:15:09.838 : en:Dargis Comes Undone
01:18:39.089 : en:Jon's Proposal
01:20:23.652 : en:End Titles





Как качать, Как раздавать - Правила и инструкции
Торрент12 окт 2018, 14:41 [ 12 окт 2018, 14:41 ]

СКАЧАТЬ с просмотром рекламы
СтатусПроверен Download more
.torrent скачан306 раз
Размер2.33 ГБ (2 506 240 943)

Скачал сам?! Дай скачать другим, не уходи с раздачи!!!

Вернуться в Зарубежные фильмы после 2000го года...



Кто сейчас на конференции

Сейчас этот форум просматривают: drumbalet

Ресурс не предоставляет электронные версии произведений, а занимается лишь коллекционированием и каталогизацией ссылок, присылаемых и публикуемых на форуме нашими читателями. Если вы являетесь правообладателем какого-либо представленного материала и не желаете чтобы ссылка на него находилась в нашем каталоге, свяжитесь с нами и мы незамедлительно удалим её. Файлы для обмена на трекере предоставлены пользователями сайта, и администрация не несёт ответственности за их содержание. Просьба не заливать файлы, защищенные авторскими правами, а также файлы нелегального содержания!