Психиатрическая больница Конджиам / Gon-ji-am / Gonjiam: Haunted Asylum [2018, Ужасы, триллер, HDRip-AVC | HDRezka Studio] - Скачать торрент бесплатно

Модераторы: Модераторы Фильмы, мультфильмы, Союз Риперов

Поделиться ВКонтакте Поделиться Facebook Поделиться Twitter Поделиться Mail.RU
АвторСообщение
wolf1245
Аватара пользователя
V.I.P.
V.I.P.
 
Раздал: 199.27 ТБ
Скачал: 14.07 ТБ
Ратио: 30.594
Сообщения: 4274
Зарегистрирован: 14 апр 2012, 23:34
Откуда: Вильнюс
Награды: 39
За 100 сообщений (1) За 500 сообщений (1) За 1000 сообщений (1) За 1500 сообщений (1) За 2000 сообщений (1) За 3000 сообщений (1) 5 Тб отданного (1) 10 Тб отданного (1) 15 Тб отданного (1) 20 Тб отданного (1) 30 Тб отданного (1) 10 Тб скаченного (1) 15 Тб скаченного (1) 20 Тб скаченного (1) 30 Тб скаченного (1) 50 Тб скаченного (1) Размер созданных раздач 3 Тб (1) Размер созданных раздач 5 Тб (1) Размер созданных раздач 10 Тб (1) Размер созданных раздач 15 Тб (1) 250 релизов (1) 500 релизов (1) 1000 релизов (1) 1500 релизов (1) 2000 релизов (1) 3000 релизов (1) За новинки сериалов (1) За новинки музыки (1) За 2000 полученных спасибо (1) За 4000 полученных спасибо (1) За 8000 полученных спасибо (1) За 10000 полученных спасибо (1) За 15000 полученных спасибо (1) 200 кармы (1) 500 кармы (1) 1000 кармы (1) Орден от Админа (1) Халява №3 (1) Верный пользователь (1)

Сообщение wolf1245 » 20 сен 2020, 16:03

Психиатрическая больница Конджиам / Gon-ji-am / Gonjiam: Haunted Asylum [2018, Ужасы, триллер, HDRip-AVC | HDRezka Studio] - Скачать торрент

Информация о фильме:
Название: Психиатрическая больница Конджиам
Оригинальное название: Gon-ji-am / Gonjiam: Haunted Asylum
Год выхода: 2018
Жанр: Ужасы, триллер
Режиссер: Бом Сик Чон
В ролях: Ха Чжун Ви, Чжи Хён Пак, А Ён О, Е Вон Мун, Сон Хун Пак, Сын Ук Ли, Чжэ Юн Ю, Чжи А Пак

Описание: После группового самоубийства 42 пациентов и исчезновения главврача 26 октября 1979 года психиатрическую больницу Конджиам закрыли. С тех пор это место притягивает любителей пощекотать нервы, и о нём ходят легенды - якобы здание населено призраками, и никому не удалось открыть дверь в зловещую комнату 402. Видеоблогер, ведущий шоу ужасов на YouTube, набирает команду отчаянных исследователей, чтобы именно 26 октября устроить прямой эфир из больницы, набрать миллион просмотров, добраться до комнаты 402 и открыть её дверь любой ценой.



Страна: Южная Корея
Студия: Hive Media, Showbox Entertainment
Продолжительность: 01:34:18
Перевод: Профессиональный (многоголосый, закадровый) - HDRezka Studio



Информация о файле:
Кодек: AVC
Формат: MKV
Качество: HDRip-AVC
Видео: MPEG-4 AVC, 1024x552 (1.85:1), 24.000 fps, 2 386 kb/s, 0.176
Аудио RU: AC3, 6 ch, 48 kHz, 448 kbps
Субтитры: Английские




General
Unique ID : 31834079609088971693413872447713020613 (0x17F3054DB784103AB342D804EED58AC5)
Complete name : D:uTorrentРипы_от_wolf1245_MediaBitGonjiam.Haunted.Asylum.2018.HDRip-AVC_wolf1245 & MediaBit.mkv
Format : Matroska
Format version : Version 4
File size : 1.87 GiB
Duration : 1 h 34 min
Overall bit rate : 2 835 kb/s
Movie name : Gonjiam.Haunted.Asylum.2018.HDRip-AVC from wolf1245 & MediaBit
Encoded date : UTC 2020-09-20 12:53:32
Writing application : mkvmerge v50.0.0 ('Awakenings') 64-bit
Writing library : libebml v1.4.0 + libmatroska v1.6.2

Video
ID : 1
Format : AVC
Format/Info : Advanced Video Codec
Format profile : High@L4.1
Format settings : CABAC / 11 Ref Frames
Format settings, CABAC : Yes
Format settings, Reference frames : 11 frames
Codec ID : V_MPEG4/ISO/AVC
Duration : 1 h 34 min
Bit rate : 2 386 kb/s
Width : 1 024 pixels
Height : 552 pixels
Display aspect ratio : 1.85:1
Frame rate mode : Constant
Frame rate : 24.000 FPS
Color space : YUV
Chroma subsampling : 4:2:0
Bit depth : 8 bits
Scan type : Progressive
Bits/(Pixel*Frame) : 0.176
Stream size : 1.57 GiB (84%)
Title : wolf1245 & MediaBit
Writing library : x264 core 157 r2958 57baac4
Encoding settings : cabac=1 / ref=11 / deblock=1:-3:-3 / analyse=0x3:0x133 / me=umh / subme=11 / psy=1 / psy_rd=1.00:0.15 / mixed_ref=1 / me_range=48 / chroma_me=1 / trellis=2 / 8x8dct=1 / cqm=0 / deadzone=21,11 / fast_pskip=0 / chroma_qp_offset=-3 / threads=10 / lookahead_threads=2 / sliced_threads=0 / nr=0 / decimate=0 / interlaced=0 / bluray_compat=0 / constrained_intra=0 / bframes=11 / b_pyramid=2 / b_adapt=2 / b_bias=0 / direct=3 / weightb=1 / open_gop=0 / weightp=2 / keyint=240 / keyint_min=24 / scenecut=40 / intra_refresh=0 / rc_lookahead=60 / rc=2pass / mbtree=0 / bitrate=2386 / ratetol=1.0 / qcomp=0.60 / qpmin=0 / qpmax=69 / qpstep=4 / cplxblur=20.0 / qblur=0.5 / vbv_maxrate=50000 / vbv_bufsize=62500 / nal_hrd=none / filler=0 / ip_ratio=1.40 / pb_ratio=1.30 / aq=3:1.00
Language : English
Default : Yes
Forced : No

Audio
ID : 2
Format : AC-3
Format/Info : Audio Coding 3
Commercial name : Dolby Digital
Codec ID : A_AC3
Duration : 1 h 34 min
Bit rate mode : Constant
Bit rate : 448 kb/s
Channel(s) : 6 channels
Channel layout : L R C LFE Ls Rs
Sampling rate : 48.0 kHz
Frame rate : 31.250 FPS (1536 SPF)
Compression mode : Lossy
Stream size : 302 MiB (16%)
Title : MVO | HDRezka Studio
Language : Russian
Service kind : Complete Main
Default : Yes
Forced : No

Text
ID : 3
Format : UTF-8
Codec ID : S_TEXT/UTF8
Codec ID/Info : UTF-8 Plain Text
Duration : 1 h 33 min
Bit rate : 47 b/s
Count of elements : 1263
Stream size : 32.7 KiB (0%)
Language : English
Default : No
Forced : No

Релиз от: &
Как качать, Как раздавать - Правила и инструкции
Торрент20 сен 2020, 16:03 [ 20 сен 2020, 16:03 ]

СКАЧАТЬ с просмотром рекламы
СтатусПроверен MR_LARRY
.torrent скачан0 раз
Размер1.87 ГБ (2 005 226 863)


zummer13

Аватара пользователя
Старейшина
Старейшина
 

Сообщения: 1551

Зарегистрирован: 05 май 2014, 15:08

Откуда: Россия,Одинцово

Награды: 18
За 100 сообщений (1) За 500 сообщений (1) За 1000 сообщений (1) За 1500 сообщений (1) 5 Тб отданного (1) 10 Тб отданного (1) 15 Тб отданного (1) 20 Тб отданного (1) 30 Тб отданного (1) За 1000 сказанных спасибо (1) За 2000 сказанных спасибо (1) За 3000 сказанных спасибо (1) За 5000 сказанных спасибо (1) За 10000 сказанных спасибо (1) 200 кармы (1) 500 кармы (1) 1000 кармы (1) Халява №5 (1)

Сообщение zummer13» 20 сен 2020, 19:24

Надо глянуть,заманчиво

kitoof

Аватара пользователя
Старожил
Старожил
 

Сообщения: 517

Зарегистрирован: 09 сен 2011, 15:27

Откуда: воронеж 36rus


Сообщение kitoof» 22 сен 2020, 15:41

zummer13 писал(а):

Надо глянуть,заманчиво

да *дуюю ща и *попкорн




Вернуться в Зарубежные фильмы после 2000го года...



Кто сейчас на конференции

Сейчас этот форум просматривают: нет зарегистрированных пользователей

Ресурс не предоставляет электронные версии произведений, а занимается лишь коллекционированием и каталогизацией ссылок, присылаемых и публикуемых на форуме нашими читателями. Если вы являетесь правообладателем какого-либо представленного материала и не желаете чтобы ссылка на него находилась в нашем каталоге, свяжитесь с нами и мы незамедлительно удалим её. Файлы для обмена на трекере предоставлены пользователями сайта, и администрация не несёт ответственности за их содержание. Просьба не заливать файлы, защищенные авторскими правами, а также файлы нелегального содержания!