Куриный забег / Elleville Elfrid / Ella Bella Bingo [2020, мультфильм, WEB-DLRip-AVC | iTunes] - Скачать торрент бесплатно

Модераторы: Модераторы Фильмы, мультфильмы, Союз Риперов

Поделиться ВКонтакте Поделиться Facebook Поделиться Twitter Поделиться Mail.RU
АвторСообщение
wolf1245
Аватара пользователя
V.I.P.
V.I.P.
 
Раздал: 199.27 ТБ
Скачал: 14.07 ТБ
Ратио: 30.594
Сообщения: 4274
Зарегистрирован: 14 апр 2012, 23:34
Откуда: Вильнюс
Награды: 39
За 100 сообщений (1) За 500 сообщений (1) За 1000 сообщений (1) За 1500 сообщений (1) За 2000 сообщений (1) За 3000 сообщений (1) 5 Тб отданного (1) 10 Тб отданного (1) 15 Тб отданного (1) 20 Тб отданного (1) 30 Тб отданного (1) 10 Тб скаченного (1) 15 Тб скаченного (1) 20 Тб скаченного (1) 30 Тб скаченного (1) 50 Тб скаченного (1) Размер созданных раздач 3 Тб (1) Размер созданных раздач 5 Тб (1) Размер созданных раздач 10 Тб (1) Размер созданных раздач 15 Тб (1) 250 релизов (1) 500 релизов (1) 1000 релизов (1) 1500 релизов (1) 2000 релизов (1) 3000 релизов (1) За новинки сериалов (1) За новинки музыки (1) За 2000 полученных спасибо (1) За 4000 полученных спасибо (1) За 8000 полученных спасибо (1) За 10000 полученных спасибо (1) За 15000 полученных спасибо (1) 200 кармы (1) 500 кармы (1) 1000 кармы (1) Орден от Админа (1) Халява №3 (1) Верный пользователь (1)

Сообщение wolf1245 » 20 сен 2020, 22:17

Куриный забег / Elleville Elfrid / Ella Bella Bingo [2020, мультфильм, WEB-DLRip-AVC | iTunes] - Скачать торрент

Информация о фильме:
Название: Куриный забег
Оригинальное название: Elleville Elfrid / Ella Bella Bingo
Год выхода: 2020
Жанр: мультфильм
Режиссер: Атле Солберг Блаксет, Франк Мосвольд
В ролях: Нинни Споне, Бьярте Ельмеланн, Оскар Фьельдстад-Бергхейм, Элиас Совольд-Симонсен, Йоханнес Йонер, Гард Б. Эйдсвольд, Хеге Скёйен, Бьорн Сундквист, Мара Жюно

Описание: Элла и Генри - неразлучные друзья с самого детства. Элла очень дорожит дружбой с Генри и готова ради него на все, даже открыть персональный цирк. В этом цирке все выглядит иначе: курицы вместо медведей, дети вместо фокусников, фейерверки вместо света софитов. И все бы ничего, но в какой-то момент Элла теряет контроль над происходящим и все переворачивается с ног на голову. Сможет ли Элла пройти через все испытания и сохранить цирк, а вместе с ним и дружбу?



Страна: Норвегия
Студия: Gimpville AS, Kool Production AS
Продолжительность: 01:19:32
Перевод: Дублированное - iTunes



Информация о файле:
Кодек: AVC
Формат: MKV
Качество: WEB-DLRip-AVC
Видео: MPEG-4 AVC, 1024x430 (2.40:1), 24.000 fps, 2717 kbps, 0.257
Аудио RU: AC3, 6 ch, 48 kHz, 384 kbps




General
Unique ID : 239963730165620872943795234723509496206 (0xB487555660EBB802875E82D46632E98E)
Complete name : D:uTorrentРипы_от_wolf1245_MediaBitElla Bella Bingo (2020) WEB-DLRip-AVC_wolf1245 & MediaBit.mkv
Format : Matroska
Format version : Version 4
File size : 1.72 GiB
Duration : 1 h 19 min
Overall bit rate : 3 103 kb/s
Movie name : Elleville Elfrid / Ella Bella Bingo (2020) WEB-DLRip-AVC from wolf1245 & MediaBit
Encoded date : UTC 2020-09-20 19:11:35
Writing application : mkvmerge v50.0.0 ('Awakenings') 64-bit
Writing library : libebml v1.4.0 + libmatroska v1.6.2
Cover : Yes
Attachments : cover

Video
ID : 1
Format : AVC
Format/Info : Advanced Video Codec
Format profile : High@L4.1
Format settings : CABAC / 12 Ref Frames
Format settings, CABAC : Yes
Format settings, Reference frames : 12 frames
Codec ID : V_MPEG4/ISO/AVC
Duration : 1 h 19 min
Bit rate : 2 717 kb/s
Width : 1 024 pixels
Height : 430 pixels
Display aspect ratio : 2.40:1
Frame rate mode : Constant
Frame rate : 24.000 FPS
Color space : YUV
Chroma subsampling : 4:2:0
Bit depth : 8 bits
Scan type : Progressive
Bits/(Pixel*Frame) : 0.257
Stream size : 1.51 GiB (88%)
Title : wolf1245 & MediaBit
Writing library : x264 core 157 r2958 57baac4
Encoding settings : cabac=1 / ref=12 / deblock=1:-3:-3 / analyse=0x3:0x133 / me=umh / subme=11 / psy=1 / psy_rd=1.00:0.10 / mixed_ref=1 / me_range=48 / chroma_me=1 / trellis=2 / 8x8dct=1 / cqm=0 / deadzone=21,11 / fast_pskip=0 / chroma_qp_offset=-3 / threads=10 / lookahead_threads=2 / sliced_threads=0 / nr=0 / decimate=0 / interlaced=0 / bluray_compat=0 / constrained_intra=0 / bframes=12 / b_pyramid=2 / b_adapt=2 / b_bias=0 / direct=3 / weightb=1 / open_gop=0 / weightp=2 / keyint=240 / keyint_min=24 / scenecut=40 / intra_refresh=0 / rc_lookahead=60 / rc=2pass / mbtree=0 / bitrate=2717 / ratetol=1.0 / qcomp=0.60 / qpmin=0 / qpmax=69 / qpstep=4 / cplxblur=20.0 / qblur=0.5 / vbv_maxrate=50000 / vbv_bufsize=62500 / nal_hrd=none / filler=0 / ip_ratio=1.40 / pb_ratio=1.30 / aq=2:1.00
Language : English
Default : Yes
Forced : No
Color range : Limited
Color primaries : BT.709
Transfer characteristics : BT.709
Matrix coefficients : BT.709

Audio
ID : 2
Format : AC-3
Format/Info : Audio Coding 3
Commercial name : Dolby Digital
Codec ID : A_AC3
Duration : 1 h 19 min
Bit rate mode : Constant
Bit rate : 384 kb/s
Channel(s) : 6 channels
Channel layout : L R C LFE Ls Rs
Sampling rate : 48.0 kHz
Frame rate : 31.250 FPS (1536 SPF)
Compression mode : Lossy
Stream size : 218 MiB (12%)
Title : [DUB] | [iTunes]
Language : Russian
Service kind : Complete Main
Default : Yes
Forced : No

Menu
00:00:00.000 : :Глава 1
00:08:25.708 : :Глава 2
00:16:42.749 : :Глава 3
00:25:09.832 : :Глава 4
00:33:08.707 : :Глава 5
00:41:49.957 : :Глава 6
00:49:59.998 : :Глава 7
00:58:13.873 : :Глава 8
01:06:28.539 : :Глава 9
01:14:12.830 : :Глава 10

Релиз от: &
Как качать, Как раздавать - Правила и инструкции
Торрент20 сен 2020, 22:17 [ 20 сен 2020, 22:17 ]

СКАЧАТЬ с просмотром рекламы
СтатусПроверен -=Robbertta=-
.torrent скачан1 раз
Размер1.72 ГБ (1 850 597 297)


Вернуться в Зарубежные мультфильмы



Кто сейчас на конференции

Сейчас этот форум просматривают: нет зарегистрированных пользователей

Ресурс не предоставляет электронные версии произведений, а занимается лишь коллекционированием и каталогизацией ссылок, присылаемых и публикуемых на форуме нашими читателями. Если вы являетесь правообладателем какого-либо представленного материала и не желаете чтобы ссылка на него находилась в нашем каталоге, свяжитесь с нами и мы незамедлительно удалим её. Файлы для обмена на трекере предоставлены пользователями сайта, и администрация не несёт ответственности за их содержание. Просьба не заливать файлы, защищенные авторскими правами, а также файлы нелегального содержания!