(Rock) Tankcsapda – Jönnek A Férgek - 2013, FLAC, lossless - Скачать торрент бесплатно

Модераторы: Модераторы Музыки, Союз Риперов

Поделиться ВКонтакте Поделиться Facebook Поделиться Twitter Поделиться Mail.RU
АвторСообщение
Doktor_75
Аватара пользователя
Модератор Музыки
Модератор Музыки
 
Раздал: 0 байт
Скачал: 0 байт
Ратио: None.
Сообщения: 358
Зарегистрирован: 05 июн 2022, 03:23
Откуда: Россия, Калининград
Награды: 6
За 100 сообщений (1) За новинки музыки (1) За 1000 сказанных спасибо (1) За вступление в группу VK (1) За вступление в Telegram (1) Халява №3 (1)

Сообщение Doktor_75 » 24 сен 2022, 16:14

(Rock) Tankcsapda – Jönnek A Férgek - 2013, FLAC, lossless - Скачать торрент

Исполнитель: Tankcsapda
Альбом: Jönnek A Férgek
Год выхода: 2013
Жанр: Rock
Cтрана исполнителя: Hungary
Тип рипа: image+.cue
Аудио кодек: FLAC
Битрейт: lossless
Продолжительность: 00:46:49


01. Voltam már bajban
02. Jönnek a férgek
03. Hóesés
04. Hiába szóltam
05. Van ördög, van isten
06. Csak neked
07. Ki csinál rendet
08. Tedd meg (a kedvemért)
09. Kapd be a horgot
10. Ezen a földön
11. Rohadt a hely
Exact Audio Copy V1.3 from 2. September 2016

EAC extraction logfile from 27. December 2018, 9:15

Tankcsapda / Jönnek a férgek

Used drive : HL-DT-STDVDRAM GH22LS50 Adapter: 1 ID: 0

Read mode : Secure
Utilize accurate stream : Yes
Defeat audio cache : Yes
Make use of C2 pointers : No

Read offset correction : 667
Overread into Lead-In and Lead-Out : No
Fill up missing offset samples with silence : Yes
Delete leading and trailing silent blocks : No
Null samples used in CRC calculations : Yes
Used interface : Native Win32 interface for Win NT & 2000

Used output format : User Defined Encoder
Selected bitrate : 1024 kBit/s
Quality : High
Add ID3 tag : Yes
Command line compressor : C:\Program Files (x86)\Exact Audio Copy\FLAC\FLAC.EXE
Additional command line options : -6 -V -T "ARTIST=%artist%" -T "TITLE=%title%" -T "ALBUM=%albumtitle%" -T "DATE=%year%" -T "TRACKNUMBER=%tracknr%" -T "GENRE=%genre%" -T "COMMENT=%comment%" -T "BAND=%albuminterpret%" -T "ALBUMARTIST=%albuminterpret%" -T "COMPOSER=%composer%" %haslyrics%--tag-from-file=LYRICS="%lyricsfile%"%haslyrics% -T "DISCNUMBER=%cdnumber%" -T "TOTALDISCS=%totalcds%" -T "TOTALTRACKS=%numtracks%" %hascover%--picture="%coverfile%"%hascover% %source% -o %dest%

TOC of the extracted CD

Track | Start | Length | Start sector | End sector
---------------------------------------------------------
1 | 0:00.00 | 3:26.71 | 0 | 15520
2 | 3:26.71 | 4:27.69 | 15521 | 35614
3 | 7:54.65 | 5:22.49 | 35615 | 59813
4 | 13:17.39 | 2:55.35 | 59814 | 72973
5 | 16:12.74 | 3:47.10 | 72974 | 90008
6 | 20:00.09 | 4:11.61 | 90009 | 108894
7 | 24:11.70 | 3:07.72 | 108895 | 122991
8 | 27:19.67 | 4:29.03 | 122992 | 143169
9 | 31:48.70 | 4:31.73 | 143170 | 163567
10 | 36:20.68 | 5:25.44 | 163568 | 187986
11 | 41:46.37 | 5:03.55 | 187987 | 210766

Range status and errors

Selected range

Filename F:\Tankcsapda\Tankcsapda - 1994 - Jönnek a férgek (Remastered 2013)\Tankcsapda - Jönnek a férgek.wav

Peak level 100.0 %
Extraction speed 6.6 X
Range quality 100.0 %
Test CRC 8F76CB2A
Copy CRC 8F76CB2A
Copy OK

No errors occurred

End of status report

---- CUETools DB Plugin V2.1.6

[CTDB TOCID: MJT4aFeZOM1iWv_.rhKkq01ReP0-] disk not present in database
Submit result: MJT4aFeZOM1iWv_.rhKkq01ReP0- has been uploaded

==== Log checksum CEC3D856AE4B244996C6D11D12CB6D632A85FB6CC4A1A2328365A97EAACE020E ====

Как качать, Как раздавать - Правила и инструкции
Торрент24 сен 2022, 16:14 [ 24 сен 2022, 16:14 ]

СКАЧАТЬ с просмотром рекламы
СтатусПроверен Doktor_75
.torrent скачан0 раз
Размер353.98 МБ (371 174 908)

Вернуться в Rock - lossless

Кто сейчас на конференции

Сейчас этот форум просматривают: нет зарегистрированных пользователей

Ресурс не предоставляет электронные версии произведений, а занимается лишь коллекционированием и каталогизацией ссылок, присылаемых и публикуемых на форуме нашими читателями. Если вы являетесь правообладателем какого-либо представленного материала и не желаете чтобы ссылка на него находилась в нашем каталоге, свяжитесь с нами и мы незамедлительно удалим её. Файлы для обмена на трекере предоставлены пользователями сайта, и администрация не несёт ответственности за их содержание. Просьба не заливать файлы, защищенные авторскими правами, а также файлы нелегального содержания!